查看: 319|回复: 2

[10bit.HDR] 1/2的魔法 Onward.2020.2160p.UHD.BluRay.X265.10bit.HDR.TrueHD.7.1.Atmos-TERMiNAL 13.45GB

[复制链接]

 成长值: 5940

级别:资源管理组

注册时间
2017-10-20
最后登录
2020-7-2
听众
1
收听
0
主题
97224
蓝光币
165705 枚
贡献
21603 点
发表于 2020-5-16 11:57:57 | 显示全部楼层 |阅读模式
1/2的魔法 Onward.2020.2160p.UHD.BluRay.X265.10bit.HDR.TrueHD.7.1.Atmos-TERMiNAL 13.45GB-1.png

译  名 1 / 2的魔法 / ?的魔法 / 二分之一的魔法 / 勇往直前 / 向前 / 觅法奇程 / 魔法周游记
片  名 Onward
年  代 2020
产  地 美国
类  别 笑剧 / 动画 / 奇异 / 冒险
语  言 英语
上映日期 2020-02-21(柏林电影节) / 2020-03-06(美国)
IMDb评分  7.5/10 from 52609 users
IMDb链接  https://www.imdb.com/title/tt7146812
豆瓣评分 7.9/10 from 22403 users
豆瓣链接 https://movie.douban.com/subject/30401849/
片  长 102分钟
导  演 丹·斯坎隆 Dan Scanlon
编  剧 丹·斯坎隆 Dan Scanlon / 基思·布宁 Keith Bunin
主  演 汤姆·赫兰德 Tom Holland
       克里斯·帕拉特 Chris Pratt
       茱莉亚·路易斯-德瑞弗斯 Julia Louis-Dreyfus
       奥克塔维亚·斯宾瑟 Octavia Spencer
       梅尔·罗德里格斯 Mel Rodriguez
       凯尔·柏海莫 Kyle Bornheimer
       丽娜·维特 Lena Waithe
       黄阿丽 Ali Wong
       格蕾·德丽斯勒 Grey DeLisle
       崔茜·尤玛 Tracey Ullman
       维尔摩·瓦尔德拉玛 Wilmer Valderrama
       乔治·普萨拉 George Psarras
       约翰·拉岑贝格 John Ratzenberger


标  签 动画 | 皮克斯 | 迪士尼 | 美国 | 魔法 | 奇异 | 2020 | 魔幻

简  介  

  影片设定在一个由精灵、巨魔和灵魂等组成的郊外空想天下,在那边独角兽在渣滓桶中穿行,像是有着糖果条纹的负鼠。影片供给了一个条件,即魔法是实在的,但它早已被现代技术所忘记和取代。一对十几岁的兄弟,在他们尚不更事时父亲便已离世,他们决议进入这个空想天下,与父亲共度最初一个奇异的日子。霍兰元配音弟弟伊安、帕拉特配音聒噪的哥哥、德瑞弗斯配音兄弟二人的母亲、斯宾瑟则会操纵其声线的上风。
  1. Video
  2. ID                                       : 1
  3. Format                                   : HEVC
  4. Format/Info                              : High Efficiency Video Coding
  5. Format profile                           : Main 10@L5.1@High
  6. HDR format                               : SMPTE ST 2086, HDR10 compatible
  7. Codec ID                                 : V_MPEGH/ISO/HEVC
  8. Duration                                 : 1 h 42 min
  9. Bit rate                                 : 11.0 Mb/s
  10. Width                                    : 3 840 pixels
  11. Height                                   : 1 608 pixels
  12. Display aspect ratio                     : 2.40:1
  13. Frame rate mode                          : Constant
  14. Frame rate                               : 23.976 (24000/1001/45165) FPS
  15. Color space                              : YUV
  16. Chroma subsampling                       : 4:2:0 (Type 2)
  17. Bit depth                                : 10 bits
  18. Bits/(Pixel*Frame)                       : 0.075
  19. Stream size                              : 7.90 GiB (59%)
  20. Writing library                          : x265 3.3+21-6bb2d88029c2:[Windows][GCC 10.0.1][64 bit] 10bit
  21. Encoding settings                        : cpuid=1176575 / frame-threads=5 / numa-pools=36 / wpp / no-pmode / no-pme / no-psnr / no-ssim / log-level=2 / input-csp=1 / input-res=3840x1608 / interlace=0 / total-frames=147246 / level-idc=51 / high-tier=1 / uhd-bd=0 / ref=4 / no-allow-non-conformance / repeat-headers / annexb / aud / hrd / info / hash=0 / no-temporal-layers / open-gop / min-keyint=23 / keyint=250 / gop-lookahead=0 / bframes=6 / b-adapt=2 / b-pyramid / bframe-bias=0 / rc-lookahead=25 / lookahead-slices=4 / scenecut=40 / hist-scenecut=0 / radl=0 / no-splice / no-intra-refresh / ctu=64 / min-cu-size=8 / rect / no-amp / max-tu-size=32 / tu-inter-depth=1 / tu-intra-depth=1 / limit-tu=0 / rdoq-level=2 / dynamic-rd=0.00 / no-ssim-rd / signhide / no-tskip / nr-intra=0 / nr-inter=0 / no-constrained-intra / strong-intra-smoothing / max-merge=3 / limit-refs=3 / limit-modes / me=3 / subme=3 / merange=57 / temporal-mvp / no-frame-dup / no-hme / weightp / no-weightb / no-analyze-src-pics / deblock=1:1 / no-sao / no-sao-non-deblock / rd=4 / selective-sao=0 / no-early-skip / rskip / no-fast-intra / no-tskip-fast / no-cu-lossless / no-b-intra / no-splitrd-skip / rdpenalty=0 / psy-rd=0.40 / psy-rdoq=1.00 / no-rd-refine / no-lossless / cbqpoffs=0 / crqpoffs=0 / rc=crf / crf=14.0 / qcomp=0.60 / qpstep=4 / stats-write=0 / stats-read=0 / vbv-maxrate=160000 / vbv-bufsize=160000 / vbv-init=0.9 / crf-max=0.0 / crf-min=0.0 / ipratio=1.40 / pbratio=1.30 / aq-mode=2 / aq-strength=0.40 / cutree / zone-count=0 / no-strict-cbr / qg-size=32 / no-rc-grain / qpmax=69 / qpmin=0 / no-const-vbv / sar=1 / overscan=0 / videoformat=5 / range=0 / colorprim=9 / transfer=16 / colormatrix=9 / chromaloc=1 / chromaloc-top=2 / chromaloc-bottom=2 / display-window=0 / master-display=G(13250,34500)B(7500,3000)R(34000,16000)WP(15635,16450)L(10000000,0) / cll=0,0 / min-luma=0 / max-luma=1023 / log2-max-poc-lsb=8 / vui-timing-info / vui-hrd-info / slices=1 / no-opt-qp-pps / no-opt-ref-list-length-pps / no-multi-pass-opt-rps / scenecut-bias=0.05 / hist-threshold=0.01 / no-opt-cu-delta-qp / no-aq-motion / hdr10 / hdr10-opt / no-dhdr10-opt / no-idr-recovery-sei / analysis-reuse-level=0 / analysis-save-reuse-level=0 / analysis-load-reuse-level=0 / scale-factor=0 / refine-intra=0 / refine-inter=0 / refine-mv=1 / refine-ctu-distortion=0 / no-limit-sao / ctu-info=0 / no-lowpass-dct / refine-analysis-type=0 / copy-pic=1 / max-ausize-factor=1.0 / no-dynamic-refine / no-single-sei / no-hevc-aq / no-svt / no-field / qp-adaptation-range=1.00 / no-scenecut-aware-qpconformance-window-offsets / right=0 / bottom=0 / decoder-max-rate=0
  22. Default                                  : Yes
  23. Forced                                   : No
  24. Color range                              : Limited
  25. Color primaries                          : BT.2020
  26. Transfer characteristics                 : PQ
  27. Matrix coefficients                      : BT.2020 non-constant
  28. Mastering display color primaries        : Display P3
  29. Mastering display luminance              : min: 0.0000 cd/m2, max: 1000 cd/m2
  30. Audio #1
  31. ID                                       : 2
  32. Format                                   : MLP FBA 16-ch
  33. Format/Info                              : Meridian Lossless Packing FBA with 16-channel presentation
  34. Commercial name                          : Dolby TrueHD with Dolby Atmos
  35. Codec ID                                 : A_TRUEHD
  36. Duration                                 : 1 h 42 min
  37. Bit rate mode                            : Variable
  38. Bit rate                                 : 7 021 kb/s
  39. Maximum bit rate                         : 10.9 Mb/s
  40. Channel(s)                               : 8 channels
  41. Channel layout                           : L R C LFE Ls Rs Lb Rb
  42. Sampling rate                            : 48.0 kHz
  43. Frame rate                               : 1 200.000 FPS (40 SPF)
  44. Compression mode                         : Lossless
  45. Stream size                              : 5.02 GiB (37%)
  46. Language                                 : English
  47. Default                                  : Yes
  48. Forced                                   : No
  49. Number of dynamic objects                : 13
  50. Bed channel count                        : 1 channel
  51. Bed channel configuration                : LFE
  52. Audio #2
  53. ID                                       : 3
  54. Format                                   : AC-3
  55. Format/Info                              : Audio Coding 3
  56. Commercial name                          : Dolby Digital
  57. Codec ID                                 : A_AC3
  58. Duration                                 : 1 h 42 min
  59. Bit rate mode                            : Constant
  60. Bit rate                                 : 640 kb/s
  61. Channel(s)                               : 6 channels
  62. Channel layout                           : L R C LFE Ls Rs
  63. Sampling rate                            : 48.0 kHz
  64. Frame rate                               : 31.250 FPS (1536 SPF)
  65. Compression mode                         : Lossy
  66. Stream size                              : 469 MiB (3%)
  67. Language                                 : English
  68. Service kind                             : Complete Main
  69. Default                                  : No
  70. Forced                                   : No
  71. Text #1
  72. ID                                       : 4
  73. Format                                   : PGS
  74. Muxing mode                              : zlib
  75. Codec ID                                 : S_HDMV/PGS
  76. Codec ID/Info                            : Picture based subtitle format used on BDs/HD-DVDs
  77. Duration                                 : 1 h 41 min
  78. Bit rate                                 : 47.4 kb/s
  79. Count of elements                        : 3814
  80. Stream size                              : 34.3 MiB (0%)
  81. Title                                    : English SDH
  82. Language                                 : English
  83. Default                                  : No
  84. Forced                                   : No
  85. Text #2
  86. ID                                       : 5
  87. Format                                   : PGS
  88. Muxing mode                              : zlib
  89. Codec ID                                 : S_HDMV/PGS
  90. Codec ID/Info                            : Picture based subtitle format used on BDs/HD-DVDs
  91. Duration                                 : 1 h 41 min
  92. Bit rate                                 : 40.6 kb/s
  93. Count of elements                        : 2824
  94. Stream size                              : 29.4 MiB (0%)
  95. Title                                    : French
  96. Language                                 : French
  97. Default                                  : No
  98. Forced                                   : No
  99. Text #3
  100. ID                                       : 6
  101. Format                                   : PGS
  102. Muxing mode                              : zlib
  103. Codec ID                                 : S_HDMV/PGS
  104. Codec ID/Info                            : Picture based subtitle format used on BDs/HD-DVDs
  105. Duration                                 : 1 h 41 min
  106. Bit rate                                 : 36.7 kb/s
  107. Count of elements                        : 2788
  108. Stream size                              : 26.6 MiB (0%)
  109. Title                                    : Spanish
  110. Language                                 : Spanish
  111. Default                                  : No
  112. Forced                                   : No
  113. Menu
  114. 00:00:00.000                             : en:Chapter 01
  115. 00:02:30.025                             : en:Chapter 02
  116. 00:07:06.384                             : en:Chapter 03
  117. 00:08:14.327                             : en:Chapter 04
  118. 00:12:45.014                             : en:Chapter 05
  119. 00:14:53.726                             : en:Chapter 06
  120. 00:19:21.035                             : en:Chapter 07
  121. 00:23:46.049                             : en:Chapter 08
  122. 00:25:34.741                             : en:Chapter 09
  123. 00:26:11.111                             : en:Chapter 10
  124. 00:27:25.435                             : en:Chapter 11
  125. 00:30:02.133                             : en:Chapter 12
  126. 00:32:49.134                             : en:Chapter 13
  127. 00:34:43.623                             : en:Chapter 14
  128. 00:36:40.782                             : en:Chapter 15
  129. 00:40:41.981                             : en:Chapter 16
  130. 00:42:48.732                             : en:Chapter 17
  131. 00:44:02.139                             : en:Chapter 18
  132. 00:45:41.113                             : en:Chapter 19
  133. 00:47:49.158                             : en:Chapter 20
  134. 00:52:01.368                             : en:Chapter 21
  135. 00:55:12.142                             : en:Chapter 22
  136. 00:57:23.940                             : en:Chapter 23
  137. 01:02:23.322                             : en:Chapter 24
  138. 01:04:02.964                             : en:Chapter 25
  139. 01:07:13.070                             : en:Chapter 26
  140. 01:08:49.041                             : en:Chapter 27
  141. 01:10:06.160                             : en:Chapter 28
  142. 01:11:12.267                             : en:Chapter 29
  143. 01:13:13.055                             : en:Chapter 30
  144. 01:15:58.720                             : en:Chapter 31
  145. 01:17:37.027                             : en:Chapter 32
  146. 01:20:26.321                             : en:Chapter 33
  147. 01:25:01.262                             : en:Chapter 34
  148. 01:26:59.589                             : en:Chapter 35
  149. 01:30:10.780                             : en:Chapter 36
  150. 01:32:51.899                             : en:Chapter 37
复制代码
102935f9qdkyjmkymwmgag.png 102935wfwfvoef33yyfn33.png 102935zqjo2hks0fz1110q.png





本帖隐藏的下载地址需要VIP会员才可阅读,您需要升级才可阅读,点击这里升级VIP

回复

使用道具 举报

级别:初级观众 Lv.1

注册时间
2020-5-26
最后登录
2020-7-2
听众
1
收听
0
主题
0
蓝光币
66 枚
贡献
0 点
发表于 4 天前 | 显示全部楼层
楼主发贴辛苦了,谢谢楼主分享!我觉得中国高清电影网是注册对了!
回复

使用道具 举报

级别:初级观众 Lv.1

注册时间
2020-3-28
最后登录
2020-6-29
听众
4
收听
0
主题
0
蓝光币
0 枚
贡献
0 点
发表于 4 天前 | 显示全部楼层
感谢感谢分享
回复

使用道具 举报

懒得打字嘛,点击右侧快捷回复 【右侧内容,后台自定义】
您需要登录后才可以回帖 登录 | 立即注册

本版积分规则

Archiver|手机版|小黑屋| 中国高清网 ( ICP备17007870号-2 ) |网站地图 

GMT+8, 2020-7-2 21:17 , Processed in 0.169796 second(s), 39 queries .

Powered by HDchina X3.4

Copyright 2017-2019©HDchina.All right reserved

返回顶部 联系我们