查看: 153|回复: 0

[歌舞片] 疯狂的世界 What.a.Crazy.World.1963.720p.BluRay.x264-GHOULS 4.88GB

[复制链接]

 成长值: 9325

级别:资源管理组

注册时间
2017-10-20
最后登录
2021-1-24
听众
1
收听
0
主题
108197
蓝光币
238257 枚
贡献
21715 点
发表于 2020-5-10 10:01:48 | 显示全部楼层 |阅读模式
疯狂的天下 What.a.Crazy.World.1963.720p.BluRay.x264-GHOULS 4.88GB-1.png & w0 E) P8 H& T! A6 _7 ]" N
$ }9 [1 p* Y: h8 g7 b5 a9 m
译  名 疯狂的天下- Y  K9 F: E- Q$ U$ H- y
片  名 What a Crazy World
4 N- F4 T, _$ @2 k# J  V年  代 1963/ g, a. Q# g( I5 N$ ], u
产  地 英国
/ B2 L8 \: k" z4 e3 E类  别 歌舞
5 e5 B* i+ G- F6 G语  言 英语7 K6 |2 H0 E. L3 `
上映日期 1963
# b: \) W: a! t* a! _1 U+ Q& @+ _' _IMDb评分  5.8/10 from 124 users+ v0 f. u% I1 G. Q& E$ K5 E
IMDb链接  https://www.imdb.com/title/tt0057678
6 L" L/ w+ }8 o0 E/ C豆瓣评分 0/10 from 0 users
5 j0 N/ ^* ^2 L2 n* U豆瓣链接 https://movie.douban.com/subject/5058595/
0 b  Z2 V/ O5 S6 N+ `1 P0 Y/ J片  长 88 分钟
3 M) [" ^. v. M6 b6 F- o/ E; M导  演 迈克尔·卡雷拉斯 Michael Carreras5 m, i( \! X: @& F6 n8 X2 J- {; `
编  剧 迈克尔·卡雷拉斯 Michael Carreras / Alan Klein1 S- `2 u' o. D) b3 ?) O- N* C/ [
主  演 Joe Brown
4 P6 J% D. g4 }8 z, I* n( G4 k4 J9 W       Susan Maughan! b/ D+ Y& C& J0 W$ D  V: x" A
       Marty Wilde
3 R# b6 w! X6 P+ Z' A$ Q3 T0 S' l$ o% N8 `# E! e$ J  D

+ i8 S" D  E1 W, a4 A标  签 歌舞 | 国外电影 | 嘟嘟娘
6 j; W8 ^2 G6 U/ W) P
' E' H9 k6 X: v& }简  介  
3 r0 f/ R8 _: C9 z1 ]7 m; r! e  Y0 I7 A: e5 x2 H) [- B
  暂无相关剧情先容
& m5 B( K8 t7 U- R- v8 b
  1. Video
    3 T/ F1 T2 W; V; y7 J" S' R' S
  2. ID                                       : 1
    / H3 z( C- k: T, D- F6 `" [
  3. Format                                   : AVC
      f$ u% D0 V; V- k7 k, j) r& j" i
  4. Format/Info                              : Advanced Video Codec1 d  i& ~! |5 r% l+ J1 B: S  @+ ?
  5. Format profile                           : High@L4
    % N9 V2 G9 C0 Z4 S
  6. Format settings                          : CABAC / 12 Ref Frames
    * R; O4 Q/ T7 [7 c3 T3 @
  7. Format settings, CABAC                   : Yes' Z5 r  N, D' p$ R$ `+ ]. z
  8. Format settings, Reference frames        : 12 frames) P" q3 S. {0 O1 c& k/ m
  9. Codec ID                                 : V_MPEG4/ISO/AVC& p5 |; T8 h& w$ j2 S
  10. Duration                                 : 1 h 28 min7 g* F4 {) D5 ~# j% Z
  11. Bit rate                                 : 7 325 kb/s
    ( r, O$ D7 |. s$ u6 Z; {! ?
  12. Width                                    : 1 280 pixels' b  N- c. ]  x0 L6 t  u
  13. Height                                   : 544 pixels( X- G) F( ]* W3 H- u8 U$ l1 n
  14. Display aspect ratio                     : 2.35:1. _& d3 _0 \# {+ M) _* a( B# z% l' w
  15. Frame rate mode                          : Constant4 Q0 l4 ]. U( f9 H
  16. Frame rate                               : 24.000 FPS
    2 V; M' Q( e. m+ W! q
  17. Color space                              : YUV
    + V4 I% _9 V  h: C
  18. Chroma subsampling                       : 4:2:0
    , j' J* S; X3 D0 r
  19. Bit depth                                : 8 bits
    / {  X3 S3 _* R
  20. Scan type                                : Progressive7 Z  M* O, Z) N& g, U
  21. Bits/(Pixel*Frame)                       : 0.4389 y8 v7 ?- @5 j
  22. Stream size                              : 4.55 GiB (93%)
    7 s* B- ^% T* }4 p
  23. Writing library                          : x264 core 160 r3000 33f9e14# G! W8 S: s2 h5 s! ]. R
  24. Encoding settings                        : cabac=1 / ref=12 / deblock=1:-3:-3 / analyse=0x3:0x133 / me=umh / subme=10 / psy=1 / psy_rd=1.50:0.15 / mixed_ref=1 / me_range=24 / chroma_me=1 / trellis=2 / 8x8dct=1 / cqm=0 / deadzone=21,11 / fast_pskip=0 / chroma_qp_offset=-3 / threads=17 / lookahead_threads=2 / sliced_threads=0 / nr=0 / decimate=0 / interlaced=0 / bluray_compat=0 / constrained_intra=0 / bframes=8 / b_pyramid=2 / b_adapt=2 / b_bias=0 / direct=3 / weightb=1 / open_gop=0 / weightp=2 / keyint=250 / keyint_min=24 / scenecut=40 / intra_refresh=0 / rc=crf / mbtree=0 / crf=16.5 / qcomp=0.60 / qpmin=0 / qpmax=69 / qpstep=4 / ip_ratio=1.40 / pb_ratio=1.30 / aq=3:0.50& q1 w; j# g. A8 S# T$ b2 U# c* a
  25. Default                                  : Yes3 e; c6 m4 L) t/ F' G' i
  26. Forced                                   : No
    6 x+ a" l2 o5 u: ^; t
  27. Color range                              : Limited( Z# U* Y9 M: f% N0 V8 M% y5 J
  28. Matrix coefficients                      : BT.709( s# i4 ?. D; s. i, @9 g- ?

  29. 2 {2 h% ~% V) ?, w; y4 [
  30. Audio
    * g9 a; J9 C; V) v+ {
  31. ID                                       : 2
    6 }% i9 w( f: z& T# y% i- h
  32. Format                                   : FLAC
    " b- R  o) E) [( a
  33. Format/Info                              : Free Lossless Audio Codec% f  i* E0 b$ |* F: s* \. U# q; o- M) j
  34. Codec ID                                 : A_FLAC
    7 ^2 ~  |1 T' N$ J3 |
  35. Duration                                 : 1 h 28 min3 r$ I1 o, L% @  k; g1 v" ^
  36. Bit rate mode                            : Variable
    8 N2 M7 I5 j, l( N0 m+ X& @
  37. Bit rate                                 : 464 kb/s
    . Z7 L, p% d5 }) r. I. Z- p( B
  38. Channel(s)                               : 2 channels3 {$ E4 K; i& a
  39. Channel layout                           : L R
    ( r3 s+ r( m  n3 O7 ~9 {. @5 q
  40. Sampling rate                            : 48.0 kHz1 O  g2 z( ?' l% G! G3 c( V( y
  41. Frame rate                               : 11.719 FPS (4096 SPF), y: Z# T8 Z/ b  b7 l" o3 d6 ?8 S" {: u
  42. Bit depth                                : 16 bits$ P3 {: U7 `$ Q" {  Q8 P
  43. Compression mode                         : Lossless' X; \* [' D5 _) U9 ]
  44. Stream size                              : 295 MiB (6%)
    ( R+ ]5 _3 L4 q% y0 k
  45. Writing library                          : libFLAC 1.3.2 (UTC 2017-01-01)
    5 w7 p4 {4 }2 f$ f& U0 \
  46. Language                                 : English! j6 D/ I4 x$ X3 H: {
  47. Default                                  : Yes
    & S8 w5 T( W8 `$ K
  48. Forced                                   : No
    ) J' R) n5 ]5 @% ~$ _8 ?

  49. $ k3 z5 H% f: G7 h: x4 u
  50. Text5 R% a" P3 L, E& I- b5 h
  51. ID                                       : 3; |/ N5 O5 J. C! J/ |4 f0 k. f
  52. Format                                   : PGS5 b+ i; u+ W$ w5 k$ ]
  53. Muxing mode                              : zlib3 H5 D/ K5 z! d$ l: P
  54. Codec ID                                 : S_HDMV/PGS
    - Y7 n; h+ W) ?& y8 ~7 W0 N  b
  55. Codec ID/Info                            : Picture based subtitle format used on BDs/HD-DVDs1 N) T+ i! ?( D1 v( E
  56. Duration                                 : 1 h 28 min
    " C/ n+ C) U8 F3 A, t* ~
  57. Bit rate                                 : 157 kb/s- `5 G! F& b: W; M8 K- V2 T  s: H
  58. Count of elements                        : 5961- I3 V$ M+ i) [. r! n. d# y
  59. Stream size                              : 99.0 MiB (2%)
    + v! f+ j- z: t! J7 t3 \& Q8 w  x% y
  60. Language                                 : English( o% F$ @$ ?8 @) o+ t
  61. Default                                  : No
    ( s" B/ L7 [- Y( @
  62. Forced                                   : No
    % M1 g! Y- x0 C' E# E# }+ ~
  63. , Q; v4 x) `+ J. d" s- d, @* \
  64. Menu
    8 K( l: E$ }9 v4 O7 L
  65. 00:00:00.000                             : en:Chapter 01  Z% y. ?" E& b" k! m, c0 p2 n
  66. 00:06:39.917                             : en:Chapter 02
    . J: E6 J; j% B) }+ J
  67. 00:10:09.917                             : en:Chapter 03
    ( Q2 s7 V1 O( a- o
  68. 00:21:54.042                             : en:Chapter 04  [7 [9 n! r) ~* [
  69. 00:32:28.000                             : en:Chapter 05  C- b0 H- O+ ]
  70. 00:41:29.625                             : en:Chapter 067 j- p- Q8 |( b  D$ T4 ?6 j
  71. 00:46:20.542                             : en:Chapter 07
    0 {: d2 u' i1 G8 W7 U* N+ m
  72. 00:55:24.708                             : en:Chapter 08. {& ^, [9 @. v4 I" w1 |! O
  73. 01:00:04.458                             : en:Chapter 09! d0 k& V" W# t+ g# r
  74. 01:06:59.958                             : en:Chapter 10( Y0 @8 t7 \! g
  75. 01:15:10.875                             : en:Chapter 116 G- G+ _4 a  t( q
  76. 01:23:44.417                             : en:Chapter 12
复制代码
1 j# x1 Z  A2 U9 K/ y9 S- t
疯狂的天下 What.a.Crazy.World.1963.720p.BluRay.x264-GHOULS 4.88GB-2.png 4 h- W+ Z0 e4 e
1 I: N8 n3 r) Q& L) o0 G' f

- g! J* y& [  |2 e) \5 y! F& ^/ p3 D" u# H8 Q$ S0 D

* N9 H6 V( ]: K; j' |
. h2 D9 T9 _7 D- E5 [/ [8 _8 [3 H9 ^8 o$ l' I

2 X/ c5 q. u. M$ n
回复

使用道具 举报

懒得打字嘛,点击右侧快捷回复 【右侧内容,后台自定义】
您需要登录后才可以回帖 登录 | 立即注册

本版积分规则

Archiver|手机版|小黑屋| 中国高清网 |网站地图 

GMT+8, 2021-1-24 21:33 , Processed in 0.136902 second(s), 40 queries .

Powered by HDchina X3.4

Copyright 2017-2019©HDchina.All right reserved

返回顶部 联系我们