查看: 105|回复: 0

[美剧] [真探/真相如探 True Detective 第三季][全08集][英语中字][MKV][1080P]

[复制链接]

 成长值: 5460

级别:资源管理组

注册时间
2017-10-20
最后登录
2020-5-28
听众
1
收听
0
主题
96235
蓝光币
152174 枚
贡献
20613 点
发表于 2020-5-8 09:58:08 | 显示全部楼层 |阅读模式
[真探/真相如探 True Detective 第三季][全08集][英语中字][MKV][1080P]-1.jpg




译  名 真探 第三季 / 刑警双雄(港) / 无间警探(台)

片  名 True Detective Season 3

年  代 2019

产  地 美国

类  别 剧情 / 悬疑 / 犯罪

语  言 英语

上映日期 2019-01-13(美国)

IMDb评分 9.4/10 from 85 users

IMDb链接 http://www.imdb.com/title/tt6710716

集  数 8

片  长 60分钟

导  演 丹尼尔·沙克海姆 Daniel Sackheim / 尼克·皮佐拉托  Nic Pizzolatto / 杰瑞米·索尔尼尔 Jeremy Saulnier

编  剧 尼克·皮佐拉托  Nic Pizzolatto / 大卫·米尔契 David Milch / 格雷厄姆·戈迪 Graham Gordy

主  演 马赫沙拉·阿里 Mahershala Ali

      卡门·艾乔戈 Carmen Ejogo

      斯蒂芬·多尔夫 Stephen Dorff

      斯科特·麦克纳里 Scoot McNairy

      麦米·古默 Mamie Gummer

      莎拉·加顿 Sarah Gadon

      艾米丽·尼尔森 Emily Nelson

      黛博拉·艾里德 Deborah Ayorinde










简  介




  HBO诗选剧《真探 True Detective》第二季评价下挫后,事隔两年才获核准拍第三季,第三季由Nic Pizzolatto执笔﹑Jeremy Saulnier﹑Daniel Sackheim及Nic Pizzolatto负责执导,现定于美国时候19年1月13日首播。

《真探》第三季报告在Ozarks一个奥秘﹑跨越数十年的犯罪故事,该季剧情会分红3个时候线。Mahershala Ali(凭《月光男孩 Moonlight》赢得奥斯卡最好男配角)饰演配角Wayne Hays,阿肯色州西北区的州警探。

其他主演包括Carmen Ejogo﹑Stephen Dorff﹑Ray Fisher﹑Michael Greyeyes﹑Jon Tenney﹑Deborah Ayorinde﹑Rhys Wakefield﹑Sarah Gadon﹑Emily Nelson﹑Brandon Flynn﹑Michael Graziadei﹑Josh Hopkins及Jodi Balfour。




  1. Video
  2. ID : 1
  3. Format : AVC
  4. Format/Info : Advanced Video Codec
  5. Format profile : High@L4
  6. Format settings : CABAC / 4 Ref Frames
  7. Format settings, CABAC : Yes
  8. Format settings, ReFrames : 4 frames
  9. Codec ID : V_MPEG4/ISO/AVC
  10. Duration : 1 h 7 min
  11. Bit rate mode : Constant
  12. Bit rate : 8 895 kb/s
  13. Nominal bit rate : 10 000 kb/s
  14. Width : 1 920 pixels
  15. Height : 1 080 pixels
  16. Display aspect ratio : 16:9
  17. Frame rate mode : Constant
  18. Frame rate : 23.976 (24000/1001) FPS
  19. Color space : YUV
  20. Chroma subsampling : 4:2:0
  21. Bit depth : 8 bits
  22. Scan type : Progressive
  23. Bits/(Pixel*Frame) : 0.179
  24. Stream size : 4.22 GiB (93%)
  25. Default : Yes
  26. Forced : No
  27. Color range : Limited
  28. Color primaries : BT.709
  29. Transfer characteristics : BT.709
  30. Matrix coefficients : BT.709

  31. Audio
  32. ID : 2
  33. Format : E-AC-3
  34. Format/Info : Enhanced AC-3
  35. Commercial name : Dolby Digital Plus
  36. Codec ID : A_EAC3
  37. Duration : 1 h 7 min
  38. Bit rate mode : Constant
  39. Bit rate : 640 kb/s
  40. Channel(s) : 6 channels
  41. Channel layout : L R C LFE Ls Rs
  42. Sampling rate : 48.0 kHz
  43. Frame rate : 31.250 FPS (1536 SPF)
  44. Compression mode : Lossy
  45. Stream size : 311 MiB (7%)
  46. Language : English
  47. Service kind : Complete Main
  48. Default : Yes
  49. Forced : No

  50. Text #1
  51. ID : 3
  52. Format : UTF-8
  53. Codec ID : S_TEXT/UTF8
  54. Codec ID/Info : UTF-8 Plain Text
  55. Duration : 1 h 7 min
  56. Bit rate : 63 b/s
  57. Count of elements : 1018
  58. Stream size : 31.7 KiB (0%)
  59. Language : English
  60. Default : No
  61. Forced : No

  62. Text #2
  63. ID : 4
  64. Format : UTF-8
  65. Codec ID : S_TEXT/UTF8
  66. Codec ID/Info : UTF-8 Plain Text
  67. Duration : 1 h 7 min
  68. Bit rate : 65 b/s
  69. Count of elements : 1065
  70. Stream size : 32.8 KiB (0%)
  71. Title : SDH
  72. Language : English
  73. Default : No
  74. Forced : No<p></p>
复制代码




[真探/真相如探 True Detective 第三季][全08集][英语中字][MKV][1080P]-2.jpg [真探/真相如探 True Detective 第三季][全08集][英语中字][MKV][1080P]-3.jpg





本帖隐藏的下载地址需要VIP会员才可阅读,您需要升级才可阅读,点击这里升级VIP

回复

使用道具 举报

懒得打字嘛,点击右侧快捷回复 【右侧内容,后台自定义】
您需要登录后才可以回帖 登录 | 立即注册

本版积分规则

Archiver|手机版|小黑屋| 中国高清网 ( ICP备17007870号-2 ) |网站地图 

GMT+8, 2020-5-28 21:01 , Processed in 0.176404 second(s), 39 queries .

Powered by HDchina X3.4

Copyright 2017-2019©HDchina.All right reserved

返回顶部 联系我们