查看: 399|回复: 13

[美剧] [西部世界/西方极乐园/Westworld 第二季][全10集打包][外挂中字][BD-MKV][1080P]

[复制链接]

 成长值: 5460

级别:资源管理组

注册时间
2017-10-20
最后登录
2020-5-28
听众
1
收听
0
主题
96229
蓝光币
152010 枚
贡献
20607 点
发表于 2020-4-24 22:57:12 | 显示全部楼层 |阅读模式
[西部天下/西方极乐园/Westworld 第二季][全10集打包][外挂中字][BD-MKV][1080P]-1.jpg

译  名 西部天下 第二季/西方极乐园

片  名 Westworld Season 2

年  代 2018

产  地 美国

类  别 科幻/西部

语  言 英语

上映日期 2018-04-22(美国)

IMDb评分  9.0/10 from 169 users

IMDb链接  http://www.imdb.com/title/tt6243294/

豆瓣评分 9.3/10 from 374 users

豆瓣链接 https://movie.douban.com/subject/26887174/

集  数 10

片  长 60分钟

主  演 埃文·蕾切尔·伍德 Evan Rachel Wood

      坦迪·牛顿 Thandie Newton

      詹姆斯·麦斯登 James Marsden

      吉米·辛普森 Jimmi Simpson

      妲露拉·莱莉 Talulah Riley

      卡佳·赫尔伯斯 Katja Herbers

      艾德·哈里斯 Ed Harris

      乔纳森·塔克 Jonathan Tucker

      杰弗里·怀特 Jeffrey Wright

      路易斯·赫特哈姆 Louis Herthum

      尼尔·杰克逊 Neil Jackson

      古斯塔·斯卡斯加德 Gustaf Skarsgård

      法瑞斯·法瑞斯 Fares Fares

      贝蒂·加布里埃尔 Betty Gabriel

      真田广之 Hiroyuki Sanada

      本·巴恩斯 Ben Barnes

      泰莎·汤普森 Tessa Thompson

      冈本多绪 Tao Okamoto

      茱莉亚·琼斯 Julia Jones

      扎恩·迈克拉农 Zahn McClarnon

      祐真琪琪

      Martin Sensmeier




简  介




  HBO公布续订《西部天下》第2季,该剧自开播以来便收获了极高的口碑,今朝第一季的情节成长已渐入佳境,机械人在自我认识醒觉后已起头反控人类,而园区内更大的诡计还未完全揭开。据悉,《西部天下》第2季会有10集,有望于2018年播出,建造人乔纳森·诺兰已经起头动手第二季剧本了。




  1. Video
  2. ID : 1
  3. Format : AVC
  4. Format/Info : Advanced Video Codec
  5. Format profile : High@L4
  6. Format settings : CABAC / 4 Ref Frames
  7. Format settings, CABAC : Yes
  8. Format settings, ReFrames : 4 frames
  9. Codec ID : V_MPEG4/ISO/AVC
  10. Duration : 1 h 30 min
  11. Bit rate : 8 922 kb/s
  12. Width : 1 920 pixels
  13. Height : 1 080 pixels
  14. Display aspect ratio : 16:9
  15. Frame rate mode : Constant
  16. Frame rate : 23.976 (24000/1001) FPS
  17. Color space : YUV
  18. Chroma subsampling : 4:2:0
  19. Bit depth : 8 bits
  20. Scan type : Progressive
  21. Bits/(Pixel*Frame) : 0.179
  22. Stream size : 5.61 GiB (86%)
  23. Writing library : x264 core 157 r2935 545de2f
  24. Encoding settings : cabac=1 / ref=4 / deblock=1:-3:-3 / analyse=0x3:0x113 / me=umh / subme=8 / psy=1 / psy_rd=1.00:0.00 / mixed_ref=1 / me_range=16 / chroma_me=1 / trellis=1 / 8x8dct=1 / cqm=0 / deadzone=21,11 / fast_pskip=1 / chroma_qp_offset=-2 / threads=24 / lookahead_threads=4 / sliced_threads=0 / nr=0 / decimate=1 / interlaced=0 / bluray_compat=0 / constrained_intra=0 / bframes=3 / b_pyramid=2 / b_adapt=2 / b_bias=0 / direct=3 / weightb=1 / open_gop=0 / weightp=2 / keyint=240 / keyint_min=24 / scenecut=40 / intra_refresh=0 / rc_lookahead=50 / rc=2pass / mbtree=1 / bitrate=8922 / ratetol=1.0 / qcomp=0.60 / qpmin=0 / qpmax=69 / qpstep=4 / cplxblur=20.0 / qblur=0.5 / ip_ratio=1.40 / aq=3:0.80
  25. Default : Yes
  26. Forced : No

  27. Audio
  28. ID : 2
  29. Format : DTS
  30. Format/Info : Digital Theater Systems
  31. Codec ID : A_DTS
  32. Duration : 1 h 30 min
  33. Bit rate mode : Constant
  34. Bit rate : 1 509 kb/s
  35. Channel(s) : 6 channels
  36. Channel layout : C L R Ls Rs LFE
  37. Sampling rate : 48.0 kHz
  38. Frame rate : 93.750 FPS (512 SPF)
  39. Bit depth : 24 bits
  40. Compression mode : Lossy
  41. Stream size : 971 MiB (14%)
  42. Language : English
  43. Default : Yes
  44. Forced : No

  45. Text #1
  46. ID : 3
  47. Format : UTF-8
  48. Codec ID : S_TEXT/UTF8
  49. Codec ID/Info : UTF-8 Plain Text
  50. Duration : 1 h 27 min
  51. Bit rate : 35 b/s
  52. Count of elements : 771
  53. Stream size : 22.7 KiB (0%)
  54. Language : English
  55. Default : No
  56. Forced : No

  57. Text #2
  58. ID : 4
  59. Format : UTF-8
  60. Codec ID : S_TEXT/UTF8
  61. Codec ID/Info : UTF-8 Plain Text
  62. Duration : 1 h 29 min
  63. Bit rate : 37 b/s
  64. Count of elements : 841
  65. Stream size : 24.9 KiB (0%)
  66. Title : SDH
  67. Language : English
  68. Default : No
  69. Forced : No

  70. Menu
  71. 00:00:00.000 : en:00:00:00.000
  72. 00:01:44.313 : en:00:01:44.313
  73. 00:09:50.799 : en:00:09:50.799
  74. 00:19:13.027 : en:00:19:13.027
  75. 00:27:44.329 : en:00:27:44.329
  76. 00:36:10.293 : en:00:36:10.293
  77. 00:47:33.434 : en:00:47:33.434
  78. 00:56:03.777 : en:00:56:03.777
  79. 01:05:50.071 : en:01:05:50.071
  80. 01:14:48.901 : en:01:14:48.901
  81. 01:25:19.489 : en:01:25:19.489<p></p>
复制代码




[西部天下/西方极乐园/Westworld 第二季][全10集打包][外挂中字][BD-MKV][1080P]-1.jpg [西部天下/西方极乐园/Westworld 第二季][全10集打包][外挂中字][BD-MKV][1080P]-2.jpg




本帖隐藏的下载地址需要VIP会员才可阅读,您需要升级才可阅读,点击这里升级VIP

回复

使用道具 举报

级别:初级观众 Lv.1

注册时间
2020-4-25
最后登录
2020-4-25
听众
3
收听
0
主题
0
蓝光币
5 枚
贡献
0 点
发表于 2020-4-25 03:49:11 | 显示全部楼层
只有开通会员才能下载吗?  蓝光币是不是没有用
回复

使用道具 举报

级别:初级观众 Lv.1

注册时间
2020-4-26
最后登录
2020-4-26
听众
4
收听
0
主题
0
蓝光币
0 枚
贡献
0 点
QQ
发表于 2020-4-26 13:42:03 | 显示全部楼层
看黄片网:lowf.cn
回复

使用道具 举报

 成长值: 1290

级别:尊贵的会员

注册时间
2020-3-1
最后登录
2020-5-28
听众
2
收听
0
主题
0
蓝光币
331 枚
贡献
0 点
发表于 2020-4-30 18:29:36 | 显示全部楼层
楼主发贴辛苦了,谢谢楼主分享!我觉得中国高清电影网是注册对了!
回复

使用道具 举报

级别:初级观众 Lv.1

注册时间
2019-5-11
最后登录
2020-5-28
听众
8
收听
0
主题
0
蓝光币
29 枚
贡献
0 点
发表于 2020-5-2 11:14:50 | 显示全部楼层
这是私有tracker还是公有性质啊?
回复

使用道具 举报

级别:初级观众 Lv.1

注册时间
2020-5-3
最后登录
2020-5-3
听众
2
收听
0
主题
0
蓝光币
0 枚
贡献
0 点
发表于 2020-5-3 17:01:18 | 显示全部楼层
谢谢分享谢谢分享谢谢分享
回复

使用道具 举报

级别:群众演员 Lv.3

注册时间
2019-12-15
最后登录
2020-5-27
听众
1
收听
0
主题
0
蓝光币
87 枚
贡献
0 点
QQ
发表于 2020-5-5 10:25:55 | 显示全部楼层

楼主太厉害了!楼主,电影应该很好看我觉得中国高清电影网真是个好地方!
回复

使用道具 举报

级别:普通观众 Lv.2

注册时间
2020-5-2
最后登录
2020-5-28
听众
2
收听
0
主题
0
蓝光币
1693 枚
贡献
0 点
发表于 2020-5-6 01:11:39 | 显示全部楼层

楼主太厉害了!楼主,电影应该很好看我觉得中国高清电影网真是个好地方!
回复

使用道具 举报

 成长值: 850

级别:尊贵的会员

注册时间
2020-2-24
最后登录
2020-5-27
听众
2
收听
0
主题
0
蓝光币
0 枚
贡献
0 点
QQ
发表于 2020-5-7 21:43:05 | 显示全部楼层
版权限制不允许下载,郁闷
回复

使用道具 举报

 成长值: 5460

级别:资源管理组

注册时间
2017-10-20
最后登录
2020-5-28
听众
1
收听
0
主题
96229
蓝光币
152010 枚
贡献
20607 点
 楼主| 发表于 2020-5-7 23:13:44 | 显示全部楼层
一件乘风 发表于 2020-5-7 21:43
版权限制不允许下载,郁闷

你下载工具的问题
回复

使用道具 举报

懒得打字嘛,点击右侧快捷回复 【右侧内容,后台自定义】
您需要登录后才可以回帖 登录 | 立即注册

本版积分规则

Archiver|手机版|小黑屋| 中国高清网 ( ICP备17007870号-2 ) |网站地图 

GMT+8, 2020-5-28 14:59 , Processed in 0.180551 second(s), 40 queries .

Powered by HDchina X3.4

Copyright 2017-2019©HDchina.All right reserved

返回顶部 联系我们