查看: 195|回复: 2

[科幻片] 次世代机动警察:首都决战/机动警察 真人版 The.Next.Generation.Patlabor.Tokyo.War.2015.DC.1080p.BluRay.x264-REGRET 7.66GB

[复制链接]

 成长值: 6010

级别:资源管理组

注册时间
2017-10-20
最后登录
2020-7-7
听众
1
收听
0
主题
97619
蓝光币
168137 枚
贡献
21715 点
发表于 2020-4-19 14:32:12 | 显示全部楼层 |阅读模式
142953k73lbbezb4s5e37s.jpg

译  名 次世代灵活差人:都城决战 / 灵活差人 真人版 / 機動差人パトレイバー 実写版
片  名 THE NEXT GENERATION パトレイバー 都城決戦
年  代 2015
产  地 日本
类  别 科幻
语  言 日语
上映日期 2015-05-01(日本)
IMDb评分  4.1/10 from 107 users
IMDb链接  https://www.imdb.com/title/tt3216086
豆瓣评分 4.6/10 from 1296 users
豆瓣链接 https://movie.douban.com/subject/25744412/
片  长 94分钟
导  演 押井守 Mamoru Oshii
编  剧 押井守 Mamoru Oshii
主  演 真野惠里菜 Erina Mano
       福士诚治 Seiji Fukushi
       笕利夫 Toshio Kakei
       太田莉菜 Rina Ohta
       千叶繁 Shigeru Chiba


标  签 日本 | 科幻 | 押井守 | 日本电影 | 漫画改编 | 2015 | 电影 | 漫画小说真人版

简  介  

  在毫无征象的一个阴沉日子,一枚导弹笔挺飞来,将国际大城市东京都内极具代表性的彩虹桥炸为两截。该事务在都内引发不小的纷扰,尔后未几,警视厅公安部外事三课的警部高畑慧(高岛礼子 饰)带着相关视频材料找到藤田继次(筧利夫 饰)所率领的特车二课,经分析发现此次攻击来自于那架侵占队未几前失窃的新型战役直升机AH-88J2改“灰色鬼魂(Grey Ghost)”。经高畑之口得知,该可骇事务与拓植行人、灰原零(森カンナ 饰)有间接的关系。而在缭乱的理论中,特车二课则面临着被裁撤的危险。
  东京一万万生齿沦为暴乱份子的人质,面临史无前例的危机,泉野明(真野惠里菜 饰)和她的LABOR能否力挽狂澜?
  1. Video
  2. ID                                       : 1
  3. Format                                   : AVC
  4. Format/Info                              : Advanced Video Codec
  5. Format profile                           : High@L4
  6. Format settings                          : CABAC / 5 Ref Frames
  7. Format settings, CABAC                   : Yes
  8. Format settings, Reference frames        : 5 frames
  9. Codec ID                                 : V_MPEG4/ISO/AVC
  10. Duration                                 : 1 h 59 min
  11. Bit rate                                 : 8 524 kb/s
  12. Width                                    : 1 920 pixels
  13. Height                                   : 808 pixels
  14. Display aspect ratio                     : 2.40:1
  15. Frame rate mode                          : Constant
  16. Frame rate                               : 23.976 (24000/1001/189150) FPS
  17. Color space                              : YUV
  18. Chroma subsampling                       : 4:2:0
  19. Bit depth                                : 8 bits
  20. Scan type                                : Progressive
  21. Bits/(Pixel*Frame)                       : 0.229
  22. Stream size                              : 7.10 GiB (93%)
  23. Writing library                          : x264 core 159 r2991 1771b55
  24. Encoding settings                        : cabac=1 / ref=5 / deblock=1:-3:-3 / analyse=0x3:0x133 / me=umh / subme=9 / psy=1 / psy_rd=1.00:0.00 / mixed_ref=1 / me_range=16 / chroma_me=1 / trellis=2 / 8x8dct=1 / cqm=0 / deadzone=21,11 / fast_pskip=0 / chroma_qp_offset=-2 / threads=24 / lookahead_threads=2 / sliced_threads=0 / nr=0 / decimate=1 / interlaced=0 / bluray_compat=0 / constrained_intra=0 / bframes=3 / b_pyramid=2 / b_adapt=1 / b_bias=0 / direct=3 / weightb=1 / open_gop=0 / weightp=2 / keyint=240 / keyint_min=24 / scenecut=40 / intra_refresh=0 / rc_lookahead=50 / rc=2pass / mbtree=1 / bitrate=8524 / ratetol=1.0 / qcomp=0.60 / qpmin=0 / qpmax=69 / qpstep=4 / cplxblur=20.0 / qblur=0.5 / ip_ratio=1.40 / aq=1:1.00
  25. Language                                 : English
  26. Default                                  : Yes
  27. Forced                                   : No

  28. Audio
  29. ID                                       : 2
  30. Format                                   : AC-3
  31. Format/Info                              : Audio Coding 3
  32. Commercial name                          : Dolby Digital
  33. Codec ID                                 : A_AC3
  34. Duration                                 : 1 h 59 min
  35. Bit rate mode                            : Constant
  36. Bit rate                                 : 640 kb/s
  37. Channel(s)                               : 6 channels
  38. Channel layout                           : L R C LFE Ls Rs
  39. Sampling rate                            : 48.0 kHz
  40. Frame rate                               : 31.250 FPS (1536 SPF)
  41. Bit depth                                : 16 bits
  42. Compression mode                         : Lossy
  43. Stream size                              : 547 MiB (7%)
  44. Language                                 : Japanese
  45. Service kind                             : Complete Main
  46. Default                                  : Yes
  47. Forced                                   : No

  48. Text
  49. ID                                       : 3
  50. Format                                   : UTF-8
  51. Codec ID                                 : S_TEXT/UTF8
  52. Codec ID/Info                            : UTF-8 Plain Text
  53. Duration                                 : 1 h 52 min
  54. Bit rate                                 : 37 b/s
  55. Count of elements                        : 1159
  56. Stream size                              : 30.7 KiB (0%)
  57. Title                                    : English Forced
  58. Language                                 : English
  59. Default                                  : Yes
  60. Forced                                   : Yes

  61. Menu
  62. 00:00:00.000                             : en:Chapter 01
  63. 00:03:22.702                             : en:Chapter 02
  64. 00:12:45.306                             : en:Chapter 03
  65. 00:18:22.727                             : en:Chapter 04
  66. 00:23:03.424                             : en:Chapter 05
  67. 00:28:47.434                             : en:Chapter 06
  68. 00:34:10.215                             : en:Chapter 07
  69. 00:41:54.929                             : en:Chapter 08
  70. 00:46:59.775                             : en:Chapter 09
  71. 00:53:49.476                             : en:Chapter 10
  72. 01:03:08.368                             : en:Chapter 11
  73. 01:08:42.618                             : en:Chapter 12
  74. 01:14:45.981                             : en:Chapter 13
  75. 01:20:06.301                             : en:Chapter 14
  76. 01:29:08.426                             : en:Chapter 15
  77. 01:34:44.178                             : en:Chapter 16
  78. 01:39:37.930                             : en:Chapter 17
  79. 01:44:03.946                             : en:Chapter 18
  80. 01:49:11.003                             : en:Chapter 19
  81. 01:55:00.352                             : en:Chapter 20
复制代码

次世代灵活差人:都城决战/灵活差人 真人版 The.Next.Generation.Patlabor.Tokyo.War.2015.DC.1080p.BluRay.x264-REGRET 7.66GB-1.png






回复

使用道具 举报

级别:荣升主角 Lv.5

注册时间
2019-10-27
最后登录
2020-7-7
听众
2
收听
0
主题
0
蓝光币
582 枚
贡献
0 点
发表于 2020-4-19 22:30:10 | 显示全部楼层
楼主发贴辛苦了,谢谢楼主分享!我觉得中国高清电影网是注册对了!
回复

使用道具 举报

 成长值: 160

级别:尊贵的会员

注册时间
2020-6-21
最后登录
2020-7-5
听众
1
收听
0
主题
0
蓝光币
36 枚
贡献
0 点
发表于 7 天前 | 显示全部楼层
楼主发贴辛苦了,谢谢楼主分享
回复

使用道具 举报

懒得打字嘛,点击右侧快捷回复 【右侧内容,后台自定义】
您需要登录后才可以回帖 登录 | 立即注册

本版积分规则

Archiver|手机版|小黑屋| 中国高清网 ( ICP备17007870号-2 ) |网站地图 

GMT+8, 2020-7-7 20:52 , Processed in 0.169656 second(s), 40 queries .

Powered by HDchina X3.4

Copyright 2017-2019©HDchina.All right reserved

返回顶部 联系我们