查看: 50|回复: 4

[悬疑片] 出租的村舍 Cottage.to.Let.1941.720p.BluRay.x264-GHOULS 3.28GB

[复制链接]

 成长值: 4620

级别:资源管理组

注册时间
2017-10-20
最后登录
2020-3-28
听众
1
收听
0
主题
94092
蓝光币
122888 枚
贡献
18456 点
发表于 前天 00:37 | 显示全部楼层 |阅读模式
出租的村舍 Cottage.to.Let.1941.720p.BluRay.x264-GHOULS 3.28GB-1.png
5 D0 l6 k! V$ n) F" Y0 _# F: F! }! u7 i
译  名 出租的村舍3 _' W/ s" F$ w3 O3 A% f, ]
片  名 Cottage to Let3 i1 l; h$ G2 P/ G. N: x/ f
年  代 1941
4 d+ b3 c1 D  J: g4 j- n4 k产  地 英国
) }7 R5 \3 w$ z类  别 悬疑 / 惊悚 / 战争
! \+ M; L' [7 |7 w) P  G语  言 英语
3 R; w: T5 @/ C上映日期 1941-09-062 W7 [) o1 R4 D2 k$ x& `
IMDb评分  6.8/10 from 942 users7 u0 p' H7 a$ X; v! k2 |/ v* T
IMDb链接  https://www.imdb.com/title/tt00334912 k2 c! _4 {: l/ K; _/ n+ o
豆瓣评分 0/10 from 0 users% p$ h6 q: x9 B/ C' m
豆瓣链接 https://movie.douban.com/subject/2297192/9 [* Z/ ~* O' D( h" }. r
片  长 90 分钟
. C6 g2 b' a( {; l; }4 {导  演 安东尼·阿斯奎斯 Anthony Asquith' Q. b( V# K* d7 o) w2 u- z
编  剧 Geoffrey Kerr
2 u$ _1 T/ e8 a; Q0 s. g8 Y主  演 莱斯利·班克斯 Leslie Banks
# x4 W4 w( _2 |! H       Jeanne De Casalis/ G* A: N. s: o, _  h0 S  k) ~" {/ i
       Carla Lehmann
! Z7 Y5 D1 S1 g       阿拉斯塔尔·西姆 Alastair Sim
; z/ S! H& n" ]9 R' E* m- v( m% Z       约翰·米尔斯 John Mills0 \+ ^2 n; k# I5 y4 ?: j8 o1 U' d
       乔治·科尔 George Cole0 y. M5 l, |1 n* [; e
       迈克·怀尔登 Michael Wilding
+ t, l$ T! U0 G1 B4 H* ^2 `; Q) T  x0 t  B8 N
% P: Q5 k; f! C6 b# o  T
标  签 英国 | tik& F: c' \% q: K
) N4 y9 i! w/ C/ ~% A& k, h0 \
简  介  8 x3 H  a$ @/ n
3 `8 E" I7 e0 ]3 k  N& c
  盟军和德国奸细纷纷潜入苏格兰的一处村舍内,他们都对住这里的发现家行将完工的投弹瞄准器分外有爱好( v$ N! u8 I8 W
  1. Video
    ; l3 X* j" T$ M/ n3 O$ @" A
  2. ID                                       : 1
    7 t! H( I! D" R# Z( ^1 P: s0 ^
  3. Format                                   : AVC
    ) _/ \7 X8 G; y3 e
  4. Format/Info                              : Advanced Video Codec
    ; {# N! _) R) V5 Q6 ~: q
  5. Format profile                           : High@L4
      i2 t" D4 n9 q/ [, f% a6 V
  6. Format settings                          : CABAC / 11 Ref Frames
    ! {0 V5 Z2 ]! r3 n2 n
  7. Format settings, CABAC                   : Yes
    + x5 m: B! V" {0 a. ~
  8. Format settings, Reference frames        : 11 frames: E4 D$ }0 F. e$ e8 ?" s* F# R( x  `
  9. Codec ID                                 : V_MPEG4/ISO/AVC# o% c+ C" b6 z& Q6 p, P
  10. Duration                                 : 1 h 30 min
    % K1 S% N5 E6 ~
  11. Bit rate                                 : 4 828 kb/s8 x! \- q& g& k( {0 [. x, g& F
  12. Width                                    : 992 pixels7 Q! B8 i/ p  u. C! J* @
  13. Height                                   : 720 pixels* _  @6 f( _- p' S* D; Q; K
  14. Display aspect ratio                     : 1.3781 m+ d7 G: U' {4 f+ o
  15. Frame rate mode                          : Constant
    5 ~5 ~" A- E4 l" o. l, n1 e
  16. Frame rate                               : 24.000 FPS
    ! |. _2 w1 `, i' z. y/ B
  17. Color space                              : YUV# y* L0 i" _  {9 F0 B3 K
  18. Chroma subsampling                       : 4:2:00 m- ]! {) Y0 m( ?" i0 l
  19. Bit depth                                : 8 bits: i1 t% }0 x$ V& e, q- ~1 W
  20. Scan type                                : Progressive
    3 p( C$ U  f, L; L6 s9 V1 Q
  21. Bits/(Pixel*Frame)                       : 0.282
    6 P- Y% I) A  h. b8 w- W" I9 E
  22. Stream size                              : 3.04 GiB (93%)
    5 z/ F0 D9 K; t
  23. Writing library                          : x264 core 159 r2991 1771b55. o7 N- f* p5 N; E$ p8 }
  24. Encoding settings                        : cabac=1 / ref=11 / deblock=1:-3:-3 / analyse=0x3:0x133 / me=umh / subme=9 / psy=1 / psy_rd=1.00:0.00 / mixed_ref=1 / me_range=24 / chroma_me=1 / trellis=1 / 8x8dct=1 / cqm=0 / deadzone=21,11 / fast_pskip=0 / chroma_qp_offset=-2 / threads=22 / lookahead_threads=3 / sliced_threads=0 / nr=0 / decimate=1 / interlaced=0 / bluray_compat=0 / constrained_intra=0 / bframes=8 / b_pyramid=2 / b_adapt=2 / b_bias=0 / direct=3 / weightb=1 / open_gop=0 / weightp=2 / keyint=250 / keyint_min=24 / scenecut=40 / intra_refresh=0 / rc_lookahead=60 / rc=2pass / mbtree=1 / bitrate=4828 / ratetol=1.0 / qcomp=0.60 / qpmin=0 / qpmax=69 / qpstep=4 / cplxblur=20.0 / qblur=0.5 / vbv_maxrate=62500 / vbv_bufsize=78125 / nal_hrd=none / filler=0 / ip_ratio=1.40 / aq=1:1.006 \0 R! z# c, {$ z
  25. Default                                  : Yes5 X2 @2 E, B# C6 S
  26. Forced                                   : No7 p$ G: V/ |* ?! o( a9 i) g
  27. , ?  N. H0 _% ]6 f
  28. Audio
    5 T  a# L1 v8 z" E2 }5 _$ p  k" _
  29. ID                                       : 2' Q6 Y( c) C' D5 J4 y) \
  30. Format                                   : FLAC  b$ z0 V! v: N/ R4 k: W% d
  31. Format/Info                              : Free Lossless Audio Codec
    ! B+ b- `9 B4 P, E, _# K, n
  32. Codec ID                                 : A_FLAC" s1 y. ^+ ]' e; P( l3 @5 D  y
  33. Duration                                 : 1 h 30 min1 ^8 d3 l7 m8 l( F( z
  34. Bit rate mode                            : Variable
    + m9 C5 z# h# g; [
  35. Bit rate                                 : 373 kb/s0 W" t+ {7 J; K% \# h9 y: F/ o' h: `
  36. Channel(s)                               : 2 channels% e& }- U$ s: m
  37. Channel layout                           : L R
    # ]2 b8 D* K( r
  38. Sampling rate                            : 48.0 kHz
    ! C- f' x4 y9 k6 Y' j
  39. Frame rate                               : 10.417 FPS (4608 SPF)4 M1 h, R" g% e" B: X
  40. Bit depth                                : 16 bits
    / V6 A5 ?1 G) u
  41. Compression mode                         : Lossless
    ( ?- V2 T/ K* g1 b7 k: a, Y
  42. Stream size                              : 241 MiB (7%)" J! }* R( r" j; u4 @! k9 Z' {
  43. Writing library                          : Lavf58.29.100
    6 O2 G0 z) t& J+ A
  44. Language                                 : English' i0 F; j5 t8 W; G9 i
  45. Default                                  : Yes$ U( v$ Y2 J: \5 X
  46. Forced                                   : No
    # ^* d8 j! n( A; x, I
  47. ; o0 o- E8 r8 w: j* `' I
  48. Menu
    & W5 y# }6 T* H2 W( M9 t4 k( }1 ^
  49. 00:00:00.000                             : en:Chapter 01; ~5 I) P$ A  i. |* k1 }0 i
  50. 00:07:48.250                             : en:Chapter 02
    # q4 B/ ~8 L  y
  51. 00:15:22.625                             : en:Chapter 03
    0 L! b; U3 b3 a7 r6 |, U8 }
  52. 00:24:00.333                             : en:Chapter 046 T, |( `9 z) W; g& F4 k' e
  53. 00:31:34.250                             : en:Chapter 05
    . E7 S" T3 @# V/ i$ d% Q, p- _- I0 {* D
  54. 00:39:02.167                             : en:Chapter 06
    3 b% q1 [7 M0 u  \) M7 d$ I
  55. 00:45:49.042                             : en:Chapter 076 W7 y. T" n% W5 _
  56. 00:53:41.750                             : en:Chapter 08  @4 n* f" B4 e" j+ w5 ?
  57. 01:01:49.083                             : en:Chapter 09/ Y7 f5 F" d) x3 c* W
  58. 01:06:34.833                             : en:Chapter 10$ L2 a6 n+ B3 E$ [" A$ ~$ `
  59. 01:13:44.625                             : en:Chapter 11
    6 ~3 C, ]7 |" k$ _
  60. 01:21:22.750                             : en:Chapter 12
复制代码

1 n4 Q: |6 ~, ^5 R! y7 x6 r 出租的村舍 Cottage.to.Let.1941.720p.BluRay.x264-GHOULS 3.28GB-2.png * y7 [, g% q3 S5 ?9 `2 \% r

% H  Y0 s+ [3 h3 X0 h4 x# O- V. D' Z7 V5 p: B1 G
9 E$ I$ `( f7 E1 f# P$ x

# I3 R6 j: {6 r/ H& i4 Q
# g* X- @0 k/ H9 ^6 s- u7 Y7 w. V- K( x. r. ~* V
回复

使用道具 举报

级别:荣升主角 Lv.5

注册时间
2019-6-9
最后登录
2020-3-28
听众
8
收听
0
主题
0
蓝光币
128 枚
贡献
0 点
发表于 前天 10:37 | 显示全部楼层

5 n8 s/ S" y* P' `6 d, X楼主太厉害了!楼主,电影应该很好看我觉得中国高清电影网真是个好地方!
回复

使用道具 举报

 成长值: 290

级别:尊贵的会员

注册时间
2020-3-1
最后登录
2020-3-28
听众
1
收听
0
主题
0
蓝光币
124 枚
贡献
0 点
发表于 前天 18:37 | 显示全部楼层
楼主发贴辛苦了,谢谢楼主分享!我觉得中国高清电影网是注册对了!
回复

使用道具 举报

级别:群众演员 Lv.3

注册时间
2018-10-4
最后登录
2020-3-27
听众
10
收听
0
主题
0
蓝光币
20 枚
贡献
0 点
发表于 昨天 02:11 | 显示全部楼层

* p$ @; |/ m* V4 e这个帖子不回对不起自己!我想我是一天也不能离开中国高清电影网
回复

使用道具 举报

级别:初级观众 Lv.1

注册时间
2020-3-26
最后登录
2020-3-27
听众
1
收听
0
主题
0
蓝光币
3 枚
贡献
0 点
发表于 昨天 12:57 | 显示全部楼层

" y8 }# H6 a6 E! V" y( O; q这个帖子不回对不起自己!我想我是一天也不能离开中国高清电影网
回复

使用道具 举报

懒得打字嘛,点击右侧快捷回复 【右侧内容,后台自定义】
您需要登录后才可以回帖 登录 | 立即注册

本版积分规则

Archiver|手机版|小黑屋| 中国高清网 ( ICP备17007870号-2 ) |网站地图

GMT+8, 2020-3-28 20:33 , Processed in 0.158935 second(s), 38 queries .

Powered by HDchina X3.4

Copyright 2017-2019©HDchina.All right reserved

返回顶部 联系我们