查看: 55|回复: 3

[剧情片] 秃鹰 Buzzard.2014.720p.BluRay.x264-SPOOKS 4.38GB

[复制链接]

 成长值: 4620

级别:资源管理组

注册时间
2017-10-20
最后登录
2020-3-28
听众
1
收听
0
主题
94092
蓝光币
122826 枚
贡献
18456 点
发表于 5 天前 | 显示全部楼层 |阅读模式
秃鹰 Buzzard.2014.720p.BluRay.x264-SPOOKS 4.38GB-1.png
; d8 |9 }* ]# L; E
% p# C5 H' r# u* L0 R译  名 秃鹰; ?1 `/ \: N* m( M
片  名 Buzzard# c$ e0 r5 c0 a! V: B
年  代 2014  K7 t% N$ e: r! B# e$ i
产  地 美国
3 j6 ^. `" M0 a6 F类  别 剧情2 w: ^) f# {! A
语  言 英语! n& ~9 k/ [/ v' U( g/ r7 Z9 K9 w
上映日期 2014-08-11(洛迦诺电影节)
/ j- r. j: Q6 Y* ^2 u" Z2 ^IMDb评分  6.4/10 from 1743 users
4 X2 a1 Z+ ~2 w& T2 RIMDb链接  https://www.imdb.com/title/tt2656588
2 r& X( s* w( K- W5 u7 q豆瓣评分 0/10 from 0 users( v, U1 j' P3 ^& `
豆瓣链接 https://movie.douban.com/subject/25912849/: d. E- R4 _. Y; Z& p, G+ M
片  长 97分钟1 n) _" ~" H2 i( E0 A
导  演 Joel Potrykus
0 b0 Y0 P4 u4 J3 ]- N: L编  剧 Joel Potrykus# O( b4 I+ E, {( z# J
主  演 Joshua Burge
8 I- ?$ ^9 w/ Z2 f0 h( `       Joel Potrykus
9 U. r( d6 ?2 _7 C       Teri Ann Nelson+ a2 ?) e& J4 k. g8 a+ k
# Y: W4 G! r% G# i0 J3 N

+ @) T# I4 r; U; E& _" Z, z标  签 2014 | 美国电影 | 自力电影 | 美國 | 笑剧片 | JoelPotrykus | 2010s | 魯蛇
. k! S, t9 O9 z: w. S/ Y3 d
2 M2 {) w1 L( D- h, Z4 |简  介  ( ~- V/ C/ w7 z/ f4 f; l

4 {* T* L5 B4 X( m7 Y  Bored office employee Marty, is out to cheat the system. One day he decides to make his escape by swiping dozens of undeliverable refund checks from his company. From here, his small-time scams manifest into paranoia and violence.
4 i! x' j* Q* V+ g
0 I! {' O1 o. d# w% X( J( U# K获奖情况  
6 y5 B$ m4 {* ?$ l. l9 g) y! A6 w2 u8 H& F' t) ]
  第67届洛迦诺国际电影节(2014)5 P# w( i- S( `8 W
  今世电影人单元金豹奖(提名) 乔尔·坡特瑞克斯
! o6 f/ L/ }" E6 b8 D; R4 i
  1. Video
    " C$ |( V  S9 J0 n5 E: G+ W
  2. ID                                       : 1% c+ B7 g+ R+ E% D5 R" A
  3. Format                                   : AVC$ j! D) O6 e  I7 W) M) o3 `2 K! V
  4. Format/Info                              : Advanced Video Codec
    / {* K: i) _" B* u' @
  5. Format profile                           : High@L4
    : L$ S3 K2 q3 T! A
  6. Format settings                          : CABAC / 9 Ref Frames( L* ~  g8 x7 s6 I9 E
  7. Format settings, CABAC                   : Yes
    * o3 M7 G+ q- l6 _) R/ y3 K3 U9 r; ?  `
  8. Format settings, Reference frames        : 9 frames/ D' ?8 l* J- v' b
  9. Codec ID                                 : V_MPEG4/ISO/AVC
    * Z$ ?7 G+ f- G: x1 q" K9 n
  10. Duration                                 : 1 h 37 min
    $ H6 P% F7 A* Q5 i( E7 k% ?
  11. Bit rate                                 : 5 824 kb/s
    # G3 Z& i6 L0 `
  12. Width                                    : 1 280 pixels7 Y) h+ l( S' n
  13. Height                                   : 720 pixels
    ! v4 u- t9 S4 z/ Y
  14. Display aspect ratio                     : 16:9
    2 L% X  r/ y, F5 G# {
  15. Frame rate mode                          : Constant
    ; x, f/ x7 Y1 G; ~
  16. Frame rate                               : 23.976 (24000/1001/189150) FPS# c9 `$ P1 P2 _; F$ u: V) C
  17. Color space                              : YUV
    - z8 t- R" d3 g$ X( o- S8 I
  18. Chroma subsampling                       : 4:2:0; h4 A4 M& c6 e+ w
  19. Bit depth                                : 8 bits
    ( E. j; `: [+ T, n9 T1 Y" B4 v
  20. Scan type                                : Progressive
    + Y# J; ]/ I' l9 m
  21. Bits/(Pixel*Frame)                       : 0.264' K; f: _' \3 J+ f3 }( O
  22. Stream size                              : 3.97 GiB (91%). H7 @! K$ _# z  t7 V* x# h
  23. Writing library                          : x264 core 159 r2991 1771b55
    ! A+ V; h( G; M& I
  24. Encoding settings                        : cabac=1 / ref=9 / deblock=1:-3:-3 / analyse=0x3:0x133 / me=umh / subme=9 / psy=1 / psy_rd=1.00:0.00 / mixed_ref=1 / me_range=24 / chroma_me=1 / trellis=1 / 8x8dct=1 / cqm=0 / deadzone=21,11 / fast_pskip=0 / chroma_qp_offset=-2 / threads=22 / lookahead_threads=3 / sliced_threads=0 / nr=0 / decimate=1 / interlaced=0 / bluray_compat=0 / constrained_intra=0 / bframes=8 / b_pyramid=2 / b_adapt=2 / b_bias=0 / direct=3 / weightb=1 / open_gop=0 / weightp=2 / keyint=250 / keyint_min=23 / scenecut=40 / intra_refresh=0 / rc_lookahead=60 / rc=2pass / mbtree=1 / bitrate=5824 / ratetol=1.0 / qcomp=0.60 / qpmin=0 / qpmax=69 / qpstep=4 / cplxblur=20.0 / qblur=0.5 / vbv_maxrate=62500 / vbv_bufsize=78125 / nal_hrd=none / filler=0 / ip_ratio=1.40 / aq=1:1.00! W2 {2 T' }! ]
  25. Default                                  : Yes. o5 u. @2 z1 I& C; Q' U9 n* e
  26. Forced                                   : No
    5 K, f' T+ c% M/ A4 i* p7 Y

  27. 3 A' j. y6 d8 w, P
  28. Audio$ b4 Q6 Z4 Q9 H& m1 h
  29. ID                                       : 2
      z( R+ X  j, O+ z7 H( i
  30. Format                                   : FLAC
    # y  M$ V) P) `" L% g+ F8 J$ P
  31. Format/Info                              : Free Lossless Audio Codec
    # y- R# d% k* J# e
  32. Codec ID                                 : A_FLAC! v% R7 w, |( {% Z& }4 O
  33. Duration                                 : 1 h 37 min
    9 B1 T% ~6 T+ a2 \0 v  `! o- u& t
  34. Bit rate mode                            : Variable' j/ B' p- V2 }% a0 w
  35. Bit rate                                 : 593 kb/s, M; G' g- ~2 S9 D, }
  36. Channel(s)                               : 2 channels8 ^0 U* I& o5 p
  37. Channel layout                           : L R
    $ h$ t% E. x" S+ n! z9 Z4 B1 `
  38. Sampling rate                            : 48.0 kHz& ^) F* g+ u4 U' _" K1 E
  39. Frame rate                               : 10.417 FPS (4608 SPF)! d; ]5 W: t2 O# m: t4 m
  40. Bit depth                                : 24 bits4 E, \0 q# I  \6 y' L
  41. Compression mode                         : Lossless
    0 `, V6 |# o* i% m- Y1 Q  C. r
  42. Stream size                              : 414 MiB (9%)/ x, A* k9 x* m' r7 X
  43. Writing library                          : Lavf58.29.100
    6 G- i" _4 D4 L# a, Q; m1 _5 h
  44. Language                                 : English1 A4 F) {5 S5 u
  45. Default                                  : Yes9 I* u: I$ T/ L% i) A. B* }
  46. Forced                                   : No
    1 e) k) G& z% Z: a& o

  47. 1 \+ l  m- K; N, I
  48. Menu
    - {9 @6 o) K& v0 _2 }, t
  49. 00:00:00.000                             : en:Chapter 01
    1 Z5 l7 D, _8 t/ t
  50. 00:06:56.124                             : en:Chapter 02
    / c! L2 e; O4 E( Y$ ]% u/ Z  J
  51. 00:14:57.522                             : en:Chapter 03
    , ]: I8 v) |6 W" n( Y6 R( u
  52. 00:23:12.766                             : en:Chapter 043 ^- \5 z& [) t' d* z, Y7 m  D
  53. 00:33:11.489                             : en:Chapter 05
    1 H  d( D2 m# a, i2 M0 z& U
  54. 00:41:12.428                             : en:Chapter 06) Y) p0 |; j7 N& E
  55. 00:48:35.329                             : en:Chapter 07' C, W/ t: d$ c% e" Q# I
  56. 00:58:04.690                             : en:Chapter 08
    2 \0 E* c- N( j  V5 G
  57. 01:05:17.372                             : en:Chapter 09
    % t0 G3 Z, W2 w' r
  58. 01:11:39.545                             : en:Chapter 10- M; L$ ]: ?, r, ?* V
  59. 01:21:29.426                             : en:Chapter 11
    0 l# B, m" a" ?. n
  60. 01:30:14.117                             : en:Chapter 12
复制代码
% B$ B5 i7 P6 [2 R" {# z2 d
秃鹰 Buzzard.2014.720p.BluRay.x264-SPOOKS 4.38GB-2.png 1 m4 \6 I; C! `5 ]  ]1 x
" m3 E2 G9 F0 C, B

) M3 ?6 H& [, z4 P# y! w
6 s  Z- }7 ^! k. S( s7 m
/ _. C) U# i& i. I' f7 Q9 \1 R
3 s+ P, Q  O; ~& ]2 t/ K0 C) m+ r
( F$ y3 f) {6 y! |5 T* X. [# E
回复

使用道具 举报

级别:荣升主角 Lv.5

注册时间
2019-6-9
最后登录
2020-3-28
听众
8
收听
0
主题
0
蓝光币
128 枚
贡献
0 点
发表于 前天 10:48 | 显示全部楼层

6 P! M  n3 N* ^; ^7 ?# i/ }/ N楼主太厉害了!楼主,电影应该很好看我觉得中国高清电影网真是个好地方!
回复

使用道具 举报

 成长值: 290

级别:尊贵的会员

注册时间
2020-3-1
最后登录
2020-3-28
听众
1
收听
0
主题
0
蓝光币
124 枚
贡献
0 点
发表于 前天 20:55 | 显示全部楼层
楼主发贴辛苦了,谢谢楼主分享!我觉得中国高清电影网是注册对了!
回复

使用道具 举报

级别:群众演员 Lv.3

注册时间
2018-10-4
最后登录
2020-3-27
听众
10
收听
0
主题
0
蓝光币
20 枚
贡献
0 点
发表于 昨天 02:16 | 显示全部楼层

; z& G1 H# t, {" L6 O这个帖子不回对不起自己!我想我是一天也不能离开中国高清电影网
回复

使用道具 举报

懒得打字嘛,点击右侧快捷回复 【右侧内容,后台自定义】
您需要登录后才可以回帖 登录 | 立即注册

本版积分规则

Archiver|手机版|小黑屋| 中国高清网 ( ICP备17007870号-2 ) |网站地图

GMT+8, 2020-3-28 19:14 , Processed in 0.144695 second(s), 38 queries .

Powered by HDchina X3.4

Copyright 2017-2019©HDchina.All right reserved

返回顶部 联系我们