查看: 163|回复: 1

[动作片] 决胜时空战区/宇宙的巨人希曼 Masters.Of.The.Universe.1987.INTERNAL.1080p.BluRay.x264-CLASSiC 8.77GB

[复制链接]

 成长值: 5470

级别:资源管理组

注册时间
2017-10-20
最后登录
2020-5-28
听众
1
收听
0
主题
96235
蓝光币
152260 枚
贡献
20613 点
发表于 2020-2-26 13:54:15 | 显示全部楼层 |阅读模式
决胜时空战区/宇宙的伟人希曼 Masters.Of.The.Universe.1987.INTERNAL.1080p.BluRay.x264-CLASSiC 8.77GB-1.png

译  名 决胜时空战区 / 宇宙的伟人希曼
片  名 Masters of the Universe
年  代 1987
产  地 美国
类  别 行动 / 科幻 / 惊悚 / 奇异 / 冒险
语  言 英语
上映日期 1987-08-07
IMDb评分  5.4/10 from 35144 users
IMDb链接  https://www.imdb.com/title/tt0093507
豆瓣评分 5.6/10 from 152 users
豆瓣链接 https://movie.douban.com/subject/1298950/
片  长 106 分钟
导  演 Gary Goddard
编  剧 David Odell / Stephen Tolkin
主  演 杜夫·龙格尔 Dolph Lundgren
       柯特妮·考克斯 Courteney Cox
       弗兰克·兰格拉 Frank Langella


标  签 美国 | 科幻 | 行动 | 动画改編 | 1987 | 1980s | 奇异 | 魔幻

简  介  

  卡通中的超级豪杰太空超人终究跃上大银幕了!在这部真人版的太空超人中,老朋友鬼魂王固然是不会缺席,此次两报酬了要掠取一把时空钥匙,而展开一场震天动地的大战,由于这把钥匙的具有者,将有才能控制时候与空间。
  1. Video
  2. ID                                       : 1
  3. Format                                   : AVC
  4. Format/Info                              : Advanced Video Codec
  5. Format profile                           : High@L4
  6. Format settings                          : CABAC / 4 Ref Frames
  7. Format settings, CABAC                   : Yes
  8. Format settings, Reference frames        : 4 frames
  9. Codec ID                                 : V_MPEG4/ISO/AVC
  10. Duration                                 : 1 h 45 min
  11. Bit rate                                 : 11.7 Mb/s
  12. Width                                    : 1 920 pixels
  13. Height                                   : 1 080 pixels
  14. Display aspect ratio                     : 16:9
  15. Frame rate mode                          : Constant
  16. Frame rate                               : 24.000 FPS
  17. Color space                              : YUV
  18. Chroma subsampling                       : 4:2:0
  19. Bit depth                                : 8 bits
  20. Scan type                                : Progressive
  21. Bits/(Pixel*Frame)                       : 0.234
  22. Stream size                              : 8.60 GiB (98%)
  23. Writing library                          : x264 core 159 r2991 1771b55
  24. Encoding settings                        : cabac=1 / ref=4 / deblock=1:0:0 / analyse=0x3:0x133 / me=tesa / subme=10 / psy=1 / psy_rd=1.00:0.00 / mixed_ref=1 / me_range=24 / chroma_me=1 / trellis=2 / 8x8dct=1 / cqm=0 / deadzone=21,11 / fast_pskip=0 / chroma_qp_offset=-2 / threads=24 / lookahead_threads=4 / sliced_threads=0 / nr=0 / decimate=1 / interlaced=0 / bluray_compat=0 / constrained_intra=0 / bframes=8 / b_pyramid=0 / b_adapt=2 / b_bias=0 / direct=3 / weightb=1 / open_gop=0 / weightp=2 / keyint=240 / keyint_min=24 / scenecut=40 / intra_refresh=0 / rc_lookahead=60 / rc=2pass / mbtree=1 / bitrate=11669 / ratetol=1.0 / qcomp=0.60 / qpmin=0 / qpmax=69 / qpstep=4 / cplxblur=20.0 / qblur=0.5 / vbv_maxrate=78125 / vbv_bufsize=62500 / nal_hrd=none / filler=0 / ip_ratio=1.40 / aq=1:1.00
  25. Default                                  : Yes
  26. Forced                                   : No
  27. Color range                              : Limited
  28. Color primaries                          : BT.709
  29. Transfer characteristics                 : BT.709
  30. Matrix coefficients                      : BT.709

  31. Audio
  32. ID                                       : 2
  33. Format                                   : AC-3
  34. Format/Info                              : Audio Coding 3
  35. Commercial name                          : Dolby Digital
  36. Codec ID                                 : A_AC3
  37. Duration                                 : 1 h 45 min
  38. Bit rate mode                            : Constant
  39. Bit rate                                 : 192 kb/s
  40. Channel(s)                               : 2 channels
  41. Channel layout                           : L R
  42. Sampling rate                            : 48.0 kHz
  43. Frame rate                               : 31.250 FPS (1536 SPF)
  44. Bit depth                                : 16 bits
  45. Compression mode                         : Lossy
  46. Stream size                              : 145 MiB (2%)
  47. Language                                 : English
  48. Service kind                             : Complete Main
  49. Default                                  : Yes
  50. Forced                                   : No

  51. Menu
  52. 00:00:00.000                             : en:Chapter 01
  53. 00:11:28.750                             : en:Chapter 02
  54. 00:20:21.125                             : en:Chapter 03
  55. 00:30:52.208                             : en:Chapter 04
  56. 00:41:24.208                             : en:Chapter 05
  57. 00:50:31.042                             : en:Chapter 06
  58. 01:01:04.583                             : en:Chapter 07
  59. 01:11:58.667                             : en:Chapter 08
  60. 01:21:19.875                             : en:Chapter 09
  61. 01:30:38.833                             : en:Chapter 10
  62. 01:41:25.458                             : en:Chapter 11
复制代码

决胜时空战区/宇宙的伟人希曼 Masters.Of.The.Universe.1987.INTERNAL.1080p.BluRay.x264-CLASSiC 8.77GB-2.png






回复

使用道具 举报

级别:普通观众 Lv.2

注册时间
2020-2-22
最后登录
2020-5-28
听众
1
收听
0
主题
0
蓝光币
47 枚
贡献
0 点
发表于 2020-4-9 22:55:51 | 显示全部楼层
楼主发贴辛苦了,谢谢楼主分享!我觉得中国高清电影网是注册对了!
回复

使用道具 举报

懒得打字嘛,点击右侧快捷回复 【右侧内容,后台自定义】
您需要登录后才可以回帖 登录 | 立即注册

本版积分规则

Archiver|手机版|小黑屋| 中国高清网 ( ICP备17007870号-2 ) |网站地图 

GMT+8, 2020-5-29 02:45 , Processed in 0.144025 second(s), 38 queries .

Powered by HDchina X3.4

Copyright 2017-2019©HDchina.All right reserved

返回顶部 联系我们