查看: 24|回复: 0

[悬疑片] 心血来潮 Passing.Fancy.2005.1080p.WEBRip.x264-RARBG 2.19GB

[复制链接]

 成长值: 4200

级别:资源管理组

注册时间
2017-10-20
最后登录
2020-2-26
听众
1
收听
0
主题
92868
蓝光币
104999 枚
贡献
17230 点
发表于 2020-2-15 15:28:13 | 显示全部楼层 |阅读模式
血汗来潮 Passing.Fancy.2005.1080p.WEBRip.x264-RARBG 2.19GB-1.png

译  名 血汗来潮
片  名 Passing Fancy
年  代 2005
产  地 美国
类  别 悬疑 / 犯罪
语  言 英语
IMDb评分  5.0/10 from 72 users
IMDb链接  https://www.imdb.com/title/tt0486639
豆瓣评分 0/10 from 0 users
豆瓣链接 https://movie.douban.com/subject/1890824/
片  长 USA: 122 分钟
导  演 Ron Stone
主  演 Amie Dellavalle
       Erynn Dana Dalton
       Antoni Corone


标  签 2000s

简  介  

  "Passing Fancy" is a film about the devastating effects that emotional and sexual abuse reap on the human mind. In this story the abuse leads to drugs, deception, insanity and eventually murder. With few clues to go on, Detective Rodriguez is assigned to the case and charged with the task of bringing a beautiful, murdering seductress to justice. After being sentenced to a life term at a mental institution for the criminally insane, the convicted murderer fights for her freedom while falling in love with the man who put her there.
  1. Video
  2. ID                                       : 1
  3. Format                                   : AVC
  4. Format/Info                              : Advanced Video Codec
  5. Format profile                           : High@L4
  6. Format settings                          : CABAC / 4 Ref Frames
  7. Format settings, CABAC                   : Yes
  8. Format settings, Reference frames        : 4 frames
  9. Codec ID                                 : avc1
  10. Codec ID/Info                            : Advanced Video Coding
  11. Duration                                 : 1 h 54 min
  12. Bit rate                                 : 2 500 kb/s
  13. Width                                    : 1 920 pixels
  14. Height                                   : 952 pixels
  15. Display aspect ratio                     : 2.017
  16. Frame rate mode                          : Constant
  17. Frame rate                               : 23.976 (23976/1000) FPS
  18. Color space                              : YUV
  19. Chroma subsampling                       : 4:2:0
  20. Bit depth                                : 8 bits
  21. Scan type                                : Progressive
  22. Bits/(Pixel*Frame)                       : 0.057
  23. Stream size                              : 2.00 GiB (92%)
  24. Writing library                          : x264 core 152 r2851M ba24899
  25. Encoding settings                        : cabac=1 / ref=4 / deblock=1:-1:-1 / analyse=0x3:0x113 / me=umh / subme=9 / psy=1 / psy_rd=1.00:0.15 / mixed_ref=1 / me_range=24 / chroma_me=1 / trellis=2 / 8x8dct=1 / cqm=0 / deadzone=21,11 / fast_pskip=1 / chroma_qp_offset=-3 / threads=16 / lookahead_threads=4 / sliced_threads=0 / nr=0 / decimate=1 / interlaced=0 / bluray_compat=0 / constrained_intra=0 / bframes=3 / b_pyramid=2 / b_adapt=2 / b_bias=0 / direct=3 / weightb=1 / open_gop=0 / weightp=2 / keyint=250 / keyint_min=25 / scenecut=40 / intra_refresh=0 / rc_lookahead=50 / rc=2pass / mbtree=1 / bitrate=2500 / ratetol=1.0 / qcomp=0.60 / qpmin=0 / qpmax=69 / qpstep=4 / cplxblur=20.0 / qblur=0.5 / vbv_maxrate=31250 / vbv_bufsize=31250 / nal_hrd=none / filler=0 / ip_ratio=1.40 / aq=3:1.00
  26. Encoded date                             : UTC 2020-02-15 00:40:24
  27. Tagged date                              : UTC 2020-02-15 00:40:24
  28. Codec configuration box                  : avcC

  29. Audio
  30. ID                                       : 2
  31. Format                                   : AAC LC
  32. Format/Info                              : Advanced Audio Codec Low Complexity
  33. Codec ID                                 : mp4a-40-2
  34. Duration                                 : 1 h 54 min
  35. Bit rate mode                            : Constant
  36. Bit rate                                 : 224 kb/s
  37. Channel(s)                               : 2 channels
  38. Channel layout                           : L R
  39. Sampling rate                            : 48.0 kHz
  40. Frame rate                               : 46.875 FPS (1024 SPF)
  41. Compression mode                         : Lossy
  42. Stream size                              : 184 MiB (8%)
  43. Language                                 : English
  44. Default                                  : Yes
  45. Alternate group                          : 1
  46. Encoded date                             : UTC 2020-02-15 00:40:24
  47. Tagged date                              : UTC 2020-02-15 00:40:24
复制代码

血汗来潮 Passing.Fancy.2005.1080p.WEBRip.x264-RARBG 2.19GB-2.png 血汗来潮 Passing.Fancy.2005.1080p.WEBRip.x264-RARBG 2.19GB-3.png 血汗来潮 Passing.Fancy.2005.1080p.WEBRip.x264-RARBG 2.19GB-1.png






回复

使用道具 举报

懒得打字嘛,点击右侧快捷回复 【右侧内容,后台自定义】
您需要登录后才可以回帖 登录 | 立即注册

本版积分规则

Archiver|手机版|小黑屋| 中国高清网 |网站地图

GMT+8, 2020-2-27 12:15 , Processed in 0.144630 second(s), 37 queries .

Powered by HDchina X3.4

Copyright 2017-2019©HDchina.All right reserved

返回顶部 联系我们