查看: 18|回复: 0

[剧情片] 贫穷和尊贵 Poverty.And.Nobility.1954.ITALIAN.1080p.AMZN.WEBRip.DDP2.0.x264-SbR 6.69GB

[复制链接]

 成长值: 4200

级别:资源管理组

注册时间
2017-10-20
最后登录
2020-2-27
听众
1
收听
0
主题
92868
蓝光币
105004 枚
贡献
17230 点
发表于 2020-2-15 15:06:31 | 显示全部楼层 |阅读模式
贫困和高贵 Poverty.And.Nobility.1954.ITALIAN.1080p.AMZN.WEBRip.DDP2.0.x264-SbR 6.69GB-1.png

译  名 贫困和高贵 / Poverty and Nobility
片  名 Miseria e nobiltà
年  代 1954
产  地 意大利
类  别 笑剧
语  言 意大利语
上映日期 1954-04-08
IMDb评分  7.8/10 from 1334 users
IMDb链接  https://www.imdb.com/title/tt0047238
豆瓣评分 7.4/10 from 46 users
豆瓣链接 https://movie.douban.com/subject/1866437/
片  长 95 分钟
导  演 Mario Mattoli
编  剧 Ruggero Maccari / Mario Mattoli
主  演 Sophia Loren
       Carlo Croccolo
       Totò


标  签 意大利 | 笑剧 | 意大利电影 | 1950s | 电影材料馆 | 电影 | 1954 | SophiaLoren

简  介  

  剧情先容:以卖字为生的费里斯和摄像师帕斯奎尔和各自的家人住在同一个屋檐下,过着贫困失意的生活。他们经常争论不休。某天,他们的朋友欧吉尼奥压服他们假扮成贵族,帮助他去追求意中品德玛(索菲娅·罗兰饰)。影片按照著名剧作家爱德阿铎·斯卡佩塔的剧本改编而来。
  《贫困和高贵》是意大利那不勒斯的笑剧中最典范而且也是最著名的一部。 影片按照著名剧作家爱德阿铎·斯卡佩塔的剧本改编而来。影片男配角的饰演者托妥是意大利著名电影演员,已经于1952年和1967年两次获自得大利国家电影记者同盟最好男演员的称号,而且因表演上的突出成就于1966年戛纳电影节获得特新颖意奖。本片获得1987年威尼斯国际电影节国际影评人同盟奖FIPRESCI Prize 奖以及1987年威尼斯国际电影节最好导演银狮奖。
  1. Video
  2. ID                                       : 1
  3. Format                                   : AVC
  4. Format/Info                              : Advanced Video Codec
  5. Format profile                           : High@L4
  6. Format settings                          : CABAC / 4 Ref Frames
  7. Format settings, CABAC                   : Yes
  8. Format settings, Reference frames        : 4 frames
  9. Codec ID                                 : V_MPEG4/ISO/AVC
  10. Duration                                 : 1 h 34 min
  11. Bit rate mode                            : Constant
  12. Bit rate                                 : 10 000 kb/s
  13. Width                                    : 1 440 pixels
  14. Height                                   : 1 080 pixels
  15. Display aspect ratio                     : 4:3
  16. Frame rate mode                          : Constant
  17. Frame rate                               : 24.000 FPS
  18. Color space                              : YUV
  19. Chroma subsampling                       : 4:2:0
  20. Bit depth                                : 8 bits
  21. Scan type                                : Progressive
  22. Bits/(Pixel*Frame)                       : 0.268
  23. Stream size                              : 6.54 GiB (98%)
  24. Language                                 : Italian
  25. Default                                  : Yes
  26. Forced                                   : No
  27. Color range                              : Limited
  28. Color primaries                          : BT.709
  29. Transfer characteristics                 : BT.709
  30. Matrix coefficients                      : BT.709

  31. Audio
  32. ID                                       : 2
  33. Format                                   : E-AC-3
  34. Format/Info                              : Enhanced AC-3
  35. Commercial name                          : Dolby Digital Plus
  36. Codec ID                                 : A_EAC3
  37. Duration                                 : 1 h 34 min
  38. Bit rate mode                            : Constant
  39. Bit rate                                 : 224 kb/s
  40. Channel(s)                               : 2 channels
  41. Channel layout                           : L R
  42. Sampling rate                            : 48.0 kHz
  43. Frame rate                               : 31.250 FPS (1536 SPF)
  44. Compression mode                         : Lossy
  45. Stream size                              : 152 MiB (2%)
  46. Language                                 : Italian
  47. Service kind                             : Complete Main
  48. Default                                  : Yes
  49. Forced                                   : No

  50. Text
  51. ID                                       : 3
  52. Format                                   : UTF-8
  53. Codec ID                                 : S_TEXT/UTF8
  54. Codec ID/Info                            : UTF-8 Plain Text
  55. Duration                                 : 1 h 33 min
  56. Bit rate                                 : 75 b/s
  57. Count of elements                        : 1422
  58. Stream size                              : 51.7 KiB (0%)
  59. Language                                 : English
  60. Default                                  : Yes
  61. Forced                                   : No
复制代码

贫困和高贵 Poverty.And.Nobility.1954.ITALIAN.1080p.AMZN.WEBRip.DDP2.0.x264-SbR 6.69GB-2.png 贫困和高贵 Poverty.And.Nobility.1954.ITALIAN.1080p.AMZN.WEBRip.DDP2.0.x264-SbR 6.69GB-3.png 贫困和高贵 Poverty.And.Nobility.1954.ITALIAN.1080p.AMZN.WEBRip.DDP2.0.x264-SbR 6.69GB-4.png






回复

使用道具 举报

懒得打字嘛,点击右侧快捷回复 【右侧内容,后台自定义】
您需要登录后才可以回帖 登录 | 立即注册

本版积分规则

Archiver|手机版|小黑屋| 中国高清网 |网站地图

GMT+8, 2020-2-27 12:39 , Processed in 0.180224 second(s), 37 queries .

Powered by HDchina X3.4

Copyright 2017-2019©HDchina.All right reserved

返回顶部 联系我们