查看: 333|回复: 4

[剧情片] 我们都是超能力者!电影版 Everyone.Is.Psychic.the.Movie.2015.JAPANESE.1080p.BluRay.x264.DTS-iKiW 10.43GB

[复制链接]

 成长值: 4210

级别:资源管理组

注册时间
2017-10-20
最后登录
2020-2-28
听众
1
收听
0
主题
92951
蓝光币
105975 枚
贡献
17313 点
发表于 2020-1-19 16:22:15 | 显示全部楼层 |阅读模式
我们都是超才能者!电影版 Everyone.Is.Psychic.the.Movie.2015.JAPANESE.1080p.BluRay.x264.DTS-iKiW 10.43GB-1.png

译  名 我们都是超才能者!电影版 / The Virgin Psychics / 超能劲处男(港)
片  名 映画 みんな!エスパーだよ!
年  代 2015
产  地 日本
类  别 剧情 / 笑剧 / 悬疑
语  言 日语 / 英语
上映日期 2015-09-04(日本)
IMDb评分  5.3/10 from 642 users
IMDb链接  https://www.imdb.com/title/tt4473370
豆瓣评分 5.2/10 from 13714 users
豆瓣链接 https://movie.douban.com/subject/26328479/
片  长 114分钟
导  演 园子温 Shion Sono
编  剧 园子温 Shion Sono
主  演 染谷将太 Sh?ta Sometani
       池田依来沙 Elaiza Ikeda
       真野惠里菜 Erina Mano
       槙田雄司 Makita Sports
       深水元基 Motoki Fukami
       柾木玲弥 Reiya Masaki
       柄本时生 Tokio Emoto
       神乐坂惠 Megumi Kagurazaka
       安田显 Ken Yasuda
       高桥玛莉润 Maryjun Takahashi
       富手麻妙 Ami Tomite
       萨赫勒?罗萨 Sahel Rosa
       今野杏南 Anna Konno
       星名美津纪 Mizuki Hoshina
       筱崎爱 Ai Shinozaki


标  签 日本 | 情色 | 笑剧 | 搞笑 | 青春 | 科幻 | 园子温 | 2015

简  介  

  园子温2015年第五部电影作品。 1313年由园子温首要执导的无节操深夜剧《我们都是超才能者!》除了要在今年春季推出电视出格篇《超才能者上东京》,还将拍摄戏院版《我们都是超才能者!》。主演仍将由染谷将太担任,估计于今年玄月上映。 园子温批评:“那时拍电视剧时,电视台很大方地给了我从打扮、班底到演员的全数决议权,很想拍摄一切集,但由于日程不能不将很多集奉求给了其他导演。是以此次可以全数自己来,非常隔心。”
  1. Video
  2. ID                                       : 1
  3. Format                                   : AVC
  4. Format/Info                              : Advanced Video Codec
  5. Format profile                           : High@L4
  6. Format settings                          : CABAC / 4 Ref Frames
  7. Format settings, CABAC                   : Yes
  8. Format settings, Reference frames        : 4 frames
  9. Codec ID                                 : V_MPEG4/ISO/AVC
  10. Duration                                 : 1 h 54 min
  11. Bit rate                                 : 11.5 Mb/s
  12. Width                                    : 1 920 pixels
  13. Height                                   : 1 036 pixels
  14. Display aspect ratio                     : 1.85:1
  15. Frame rate mode                          : Constant
  16. Frame rate                               : 23.976 (24000/1001) FPS
  17. Color space                              : YUV
  18. Chroma subsampling                       : 4:2:0
  19. Bit depth                                : 8 bits
  20. Scan type                                : Progressive
  21. Bits/(Pixel*Frame)                       : 0.241
  22. Stream size                              : 9.20 GiB (88%)
  23. Writing library                          : x264 core 142 r2431+42 c69a006 tMod [High@L4 X86_64]
  24. Encoding settings                        : cabac=1 / ref=4 / deblock=1:-3:-3 / analyse=0x3:0x133 / me=umh / subme=11 / psy=1 / fade_compensate=0.00 / psy_rd=1.05:0.05 / mixed_ref=1 / me_range=64 / chroma_me=1 / trellis=2 / 8x8dct=1 / cqm=0 / deadzone=21,11 / fast_pskip=0 / chroma_qp_offset=-1 / threads=12 / lookahead_threads=2 / sliced_threads=0 / nr=0 / decimate=0 / interlaced=0 / bluray_compat=0 / constrained_intra=0 / fgo=0 / bframes=8 / b_pyramid=2 / b_adapt=2 / b_bias=0 / direct=3 / weightb=1 / open_gop=0 / weightp=2 / keyint=250 / keyint_min=23 / scenecut=40 / intra_refresh=0 / rc_lookahead=150 / rc=2pass / mbtree=0 / bitrate=11500 / ratetol=1.0 / qcomp=0.70 / qpmin=0:0:0 / qpmax=69:69:69 / qpstep=4 / cplxblur=20.0 / qblur=0.5 / vbv_maxrate=50000 / vbv_bufsize=50000 / nal_hrd=none / filler=0 / ip_ratio=1.40 / pb_ratio=1.30 / aq=1:0.85 / aq-sensitivity=10.00 / aq-factor=1.00:1.00:1.00 / aq2=0 / aq3=0
  25. Language                                 : Japanese
  26. Default                                  : Yes
  27. Forced                                   : No
  28. Color range                              : Limited
  29. Matrix coefficients                      : BT.709

  30. Audio
  31. ID                                       : 2
  32. Format                                   : DTS
  33. Format/Info                              : Digital Theater Systems
  34. Codec ID                                 : A_DTS
  35. Duration                                 : 1 h 54 min
  36. Bit rate mode                            : Constant
  37. Bit rate                                 : 1 509 kb/s
  38. Channel(s)                               : 6 channels
  39. Channel layout                           : C L R Ls Rs LFE
  40. Sampling rate                            : 48.0 kHz
  41. Frame rate                               : 93.750 FPS (512 SPF)
  42. Bit depth                                : 24 bits
  43. Compression mode                         : Lossy
  44. Stream size                              : 1.21 GiB (12%)
  45. Language                                 : Japanese
  46. Default                                  : Yes
  47. Forced                                   : No

  48. Text #1
  49. ID                                       : 3
  50. Format                                   : UTF-8
  51. Codec ID                                 : S_TEXT/UTF8
  52. Codec ID/Info                            : UTF-8 Plain Text
  53. Duration                                 : 1 h 54 min
  54. Bit rate                                 : 38 b/s
  55. Count of elements                        : 1425
  56. Stream size                              : 32.3 KiB (0%)
  57. Language                                 : English
  58. Default                                  : Yes
  59. Forced                                   : No

  60. Text #2
  61. ID                                       : 4
  62. Format                                   : ASS
  63. Codec ID                                 : S_TEXT/ASS
  64. Codec ID/Info                            : Advanced Sub Station Alpha
  65. Duration                                 : 1 h 53 min
  66. Bit rate                                 : 103 b/s
  67. Count of elements                        : 1742
  68. Compression mode                         : Lossless
  69. Stream size                              : 86.1 KiB (0%)
  70. Title                                    : CHT
  71. Language                                 : Chinese
  72. Default                                  : No
  73. Forced                                   : No

  74. Menu
  75. 00:00:00.000                             : en:00:00:00.000
  76. 00:10:05.104                             : en:00:10:05.104
  77. 00:18:07.712                             : en:00:18:07.712
  78. 00:24:12.326                             : en:00:24:12.326
  79. 00:33:24.544                             : en:00:33:24.544
  80. 00:42:31.591                             : en:00:42:31.591
  81. 00:49:44.273                             : en:00:49:44.273
  82. 00:54:06.076                             : en:00:54:06.076
  83. 01:02:19.986                             : en:01:02:19.986
  84. 01:13:18.811                             : en:01:13:18.811
  85. 01:19:15.501                             : en:01:19:15.501
  86. 01:28:55.830                             : en:01:28:55.830
  87. 01:38:03.544                             : en:01:38:03.544
  88. 01:43:15.272                             : en:01:43:15.272
  89. 01:50:11.146                             : en:01:50:11.146
复制代码

我们都是超才能者!电影版 Everyone.Is.Psychic.the.Movie.2015.JAPANESE.1080p.BluRay.x264.DTS-iKiW 10.43GB-2.png 162137v2o83hd9v3711z1h.png 我们都是超才能者!电影版 Everyone.Is.Psychic.the.Movie.2015.JAPANESE.1080p.BluRay.x264.DTS-iKiW 10.43GB-4.png






回复

使用道具 举报

 成长值: 580

级别:尊贵的会员

注册时间
2019-12-21
最后登录
2020-2-28
听众
1
收听
0
主题
0
蓝光币
0 枚
贡献
0 点
发表于 2020-1-19 18:36:10 | 显示全部楼层
谢谢分享,不错不错不错
回复

使用道具 举报

 成长值: 1480

级别:尊贵的会员

注册时间
2019-11-26
最后登录
2020-2-28
听众
1
收听
0
主题
0
蓝光币
230 枚
贡献
0 点
发表于 2020-1-19 20:13:54 | 显示全部楼层
楼主发贴辛苦了,谢谢楼主分享!我觉得中国高清电影网是注册对了!
回复

使用道具 举报

级别:领衔主演 Lv.6

注册时间
2018-2-26
最后登录
2020-2-28
听众
16
收听
0
主题
0
蓝光币
240 枚
贡献
0 点
发表于 2020-1-20 09:23:53 | 显示全部楼层

我看不错噢 谢谢楼主!中国高清电影网越来越好!
回复

使用道具 举报

级别:群众演员 Lv.3

注册时间
2020-2-4
最后登录
2020-2-28
听众
1
收听
0
主题
0
蓝光币
22 枚
贡献
0 点
发表于 2020-2-14 17:42:11 | 显示全部楼层

这个帖子不回对不起自己!我想我是一天也不能离开中国高清电影网
回复

使用道具 举报

懒得打字嘛,点击右侧快捷回复 【右侧内容,后台自定义】
您需要登录后才可以回帖 登录 | 立即注册

本版积分规则

Archiver|手机版|小黑屋| 中国高清网 |网站地图

GMT+8, 2020-2-28 23:23 , Processed in 0.203312 second(s), 37 queries .

Powered by HDchina X3.4

Copyright 2017-2019©HDchina.All right reserved

返回顶部 联系我们