查看: 99|回复: 3

[喜剧片] 企业动物 Corporate.Animals.2019.1080p.BluRay.x264-YOL0W 6.55GB

[复制链接]

 成长值: 3900

级别:资源管理组

注册时间
2017-10-20
最后登录
2020-1-28
听众
1
收听
0
主题
90930
蓝光币
86506 枚
贡献
15292 点
发表于 2020-1-14 16:31:25 | 显示全部楼层 |阅读模式
企业动物 Corporate.Animals.2019.1080p.BluRay.x264-YOL0W 6.55GB-1.png

译  名 企业动物
片  名 Corporate Animals
年  代 2019
产  地 美国
类  别 笑剧 / 可骇
语  言 英语
上映日期 2019-01-29(圣丹斯电影节)
IMDb评分  4.4/10 from 1229 users
IMDb链接  https://www.imdb.com/title/tt8366502
豆瓣评分 6.0/10 from 170 users
豆瓣链接 https://movie.douban.com/subject/30413544/
片  长 90分钟(圣丹斯电影节)
导  演 帕特里克·布莱斯 Patrick Brice
编  剧 山姆·贝恩 Sam Bain
主  演 黛米·摩尔 Demi Moore
       艾德·赫尔姆斯 Ed Helms
       杰西卡·威廉姆斯 Jessica Williams
       卡兰·索尼 Karan Soni
       小伊塞亚·维特洛克 Isiah Whitlock Jr.
       玛莎·凯莉 Martha Kelly
       丹·巴克达尔 Dan Bakkedahl
       卡勒姆·沃西 Calum Worthy
       詹妮弗·金 Jennifer Kim
       纳西姆·帕杜雷德 Nasim Pedrad
       布兰妮·斯皮尔斯 Britney Spears
       Courtney Cunningham


标  签 笑剧 | 美国 | 2019 | 可骇 | 美国电影 | 黛米·摩尔 | 剧情 | 求生

简  介  

  露西(黛米·摩尔)是美国第一家供给食用餐具的“不成思议的编辑”公司(Incredible Edibles)的自负、自豪狂的首席履行官。露西以她无穷的聪明,率领她的员工,包括持久刻苦的助手,弗雷迪(卡兰·索尼)和杰西(杰西卡·威廉姆斯),在新墨西哥州的一个公司团队扶植崩塌周末。当灾难到姑且,即使是他们无用的领导,布兰登(埃德·赫尔姆斯)也救不了他们。这个不婚配和不满的群体被困在地下,为了保存,他们必须团结起来。
  导演帕特里克·布赖斯召集了一群不太能够的脚色,把他们锁在洞窟里,然后让他们分开。接下来是关于人类社会互动的噩梦般的研讨,一向在问这样一个题目:当人们停止相互合作,结合起来匹敌榨取者时,会发生什么?Brice缔造性地将每个脚色的弧线编织成更大的主题,在他们成为他们赋性的牺牲品时,饰演他们抵挡动物性的人性。十二小我被困在岩穴里,食品正在干涸,真相被揭穿,变节和操纵被揭穿,结成同盟——什么能够出错?
  1. Video
  2. ID                                       : 1
  3. Format                                   : AVC
  4. Format/Info                              : Advanced Video Codec
  5. Format profile                           : High@L4
  6. Format settings                          : CABAC / 5 Ref Frames
  7. Format settings, CABAC                   : Yes
  8. Format settings, Reference frames        : 5 frames
  9. Codec ID                                 : V_MPEG4/ISO/AVC
  10. Duration                                 : 1 h 25 min
  11. Bit rate                                 : 9 422 kb/s
  12. Width                                    : 1 920 pixels
  13. Height                                   : 800 pixels
  14. Display aspect ratio                     : 2.40:1
  15. Frame rate mode                          : Constant
  16. Frame rate                               : 23.976 (24000/1001) FPS
  17. Color space                              : YUV
  18. Chroma subsampling                       : 4:2:0
  19. Bit depth                                : 8 bits
  20. Scan type                                : Progressive
  21. Bits/(Pixel*Frame)                       : 0.256
  22. Stream size                              : 5.65 GiB (86%)
  23. Writing library                          : x264 core 159 r2991 1771b55
  24. Encoding settings                        : cabac=1 / ref=5 / deblock=1:-2:-2 / analyse=0x3:0x133 / me=umh / subme=8 / psy=1 / psy_rd=1.00:0.00 / mixed_ref=1 / me_range=16 / chroma_me=1 / trellis=2 / 8x8dct=1 / cqm=0 / deadzone=21,11 / fast_pskip=0 / chroma_qp_offset=-2 / threads=24 / lookahead_threads=4 / sliced_threads=0 / nr=0 / decimate=1 / interlaced=0 / bluray_compat=0 / constrained_intra=0 / bframes=3 / b_pyramid=2 / b_adapt=2 / b_bias=0 / direct=3 / weightb=1 / open_gop=0 / weightp=2 / keyint=230 / keyint_min=23 / scenecut=40 / intra_refresh=0 / rc_lookahead=60 / rc=2pass / mbtree=1 / bitrate=9422 / ratetol=1.0 / qcomp=0.60 / qpmin=0 / qpmax=69 / qpstep=4 / cplxblur=20.0 / qblur=0.5 / ip_ratio=1.40 / aq=1:1.00
  25. Default                                  : Yes
  26. Forced                                   : No
  27. Color range                              : Limited
  28. Matrix coefficients                      : BT.709

  29. Audio
  30. ID                                       : 2
  31. Format                                   : DTS
  32. Format/Info                              : Digital Theater Systems
  33. Codec ID                                 : A_DTS
  34. Duration                                 : 1 h 25 min
  35. Bit rate mode                            : Constant
  36. Bit rate                                 : 1 509 kb/s
  37. Channel(s)                               : 6 channels
  38. Channel layout                           : C L R Ls Rs LFE
  39. Sampling rate                            : 48.0 kHz
  40. Frame rate                               : 93.750 FPS (512 SPF)
  41. Bit depth                                : 24 bits
  42. Compression mode                         : Lossy
  43. Stream size                              : 927 MiB (14%)
  44. Language                                 : English
  45. Default                                  : Yes
  46. Forced                                   : No

  47. Text
  48. ID                                       : 3
  49. Format                                   : UTF-8
  50. Codec ID                                 : S_TEXT/UTF8
  51. Codec ID/Info                            : UTF-8 Plain Text
  52. Duration                                 : 1 h 25 min
  53. Bit rate                                 : 81 b/s
  54. Count of elements                        : 1971
  55. Stream size                              : 51.2 KiB (0%)
  56. Title                                    : English SDH
  57. Language                                 : English
  58. Default                                  : No
  59. Forced                                   : No

  60. Menu
  61. 00:00:00.000                             : :Chapitre 01
  62. 00:05:33.959                             : :Chapitre 02
  63. 00:14:37.877                             : :Chapitre 03
  64. 00:20:02.368                             : :Chapitre 04
  65. 00:27:51.378                             : :Chapitre 05
  66. 00:34:48.795                             : :Chapitre 06
  67. 00:42:49.275                             : :Chapitre 07
  68. 00:48:39.792                             : :Chapitre 08
  69. 00:56:44.401                             : :Chapitre 09
  70. 01:04:41.044                             : :Chapitre 10
  71. 01:11:58.648                             : :Chapitre 11
  72. 01:20:28.907                             : :Chapitre 12
复制代码

企业动物 Corporate.Animals.2019.1080p.BluRay.x264-YOL0W 6.55GB-2.png 企业动物 Corporate.Animals.2019.1080p.BluRay.x264-YOL0W 6.55GB-3.png 企业动物 Corporate.Animals.2019.1080p.BluRay.x264-YOL0W 6.55GB-4.png






VIP会员免费任意下载本站所有资源!---点击开通
回复

使用道具 举报

级别:群众演员 Lv.3

注册时间
2020-1-1
最后登录
2020-1-28
听众
1
收听
0
主题
0
蓝光币
50 枚
贡献
0 点
发表于 2020-1-14 21:34:14 | 显示全部楼层

这个帖子不回对不起自己!我想我是一天也不能离开中国高清电影网
VIP会员免费任意下载本站所有资源!---点击开通
回复

使用道具 举报

级别:专业龙套 Lv.4

注册时间
2019-10-27
最后登录
2020-1-27
听众
1
收听
0
主题
0
蓝光币
181 枚
贡献
0 点
发表于 2020-1-14 23:35:54 | 显示全部楼层
楼主发贴辛苦了,谢谢楼主分享!我觉得中国高清电影网是注册对了!
VIP会员免费任意下载本站所有资源!---点击开通
回复

使用道具 举报

 成长值: 1015

级别:尊贵的会员

注册时间
2019-11-26
最后登录
2020-1-28
听众
1
收听
0
主题
0
蓝光币
137 枚
贡献
0 点
发表于 2020-1-16 21:07:45 | 显示全部楼层
楼主发贴辛苦了,谢谢楼主分享!我觉得中国高清电影网是注册对了!
VIP会员免费任意下载本站所有资源!---点击开通
回复

使用道具 举报

懒得打字嘛,点击右侧快捷回复 【右侧内容,后台自定义】
您需要登录后才可以回帖 登录 | 立即注册

本版积分规则

Archiver|手机版|小黑屋| 中国高清网 |网站地图

GMT+8, 2020-1-28 22:01 , Processed in 0.241318 second(s), 37 queries .

Powered by HDchina X3.4

Copyright 2017-2019©HDchina.All right reserved

返回顶部 联系我们