查看: 426|回复: 6

[纪录片] 寻找最后的动作英雄 In.Search.of.the.Last.Action.Heroes.2019.1080p.BluRay.x264-HANDJOB 11.75GB

[复制链接]

 成长值: 6410

级别:资源管理组

注册时间
2017-10-20
最后登录
2020-8-7
听众
1
收听
0
主题
100960
蓝光币
179136 枚
贡献
21715 点
发表于 2020-1-14 16:30:39 | 显示全部楼层 |阅读模式
寻觅最初的行动豪杰 In.Search.of.the.Last.Action.Heroes.2019.1080p.BluRay.x264-HANDJOB 11.75GB-1.png

译  名 寻觅最初的行动豪杰
片  名 In Search of the Last Action Heroes
年  代 2019
产  地 英国
类  别 记载片
语  言 英语
上映日期 2019-03(英国)
IMDb评分  7.5/10 from 53 users
IMDb链接  https://www.imdb.com/title/tt8840400
豆瓣评分 0/10 from 0 users
豆瓣链接 https://movie.douban.com/subject/33390321/
导  演 Oliver Harper
主  演 Stuart Ashen
       James Bruner
       博兹·大卫逊 Boaz Davidson
       斯蒂芬·E.德·索萨 Steven E. de Souza
       比尔·杜克 Bill Duke


简  介  

  "In Search of the Last Action Heroes" the most comprehensive retrospective of the '80s action film genre ever made.
  1. Video
  2. ID                                       : 3
  3. Format                                   : AVC
  4. Format/Info                              : Advanced Video Codec
  5. Format profile                           : High@L4
  6. Format settings                          : CABAC / 4 Ref Frames
  7. Format settings, CABAC                   : Yes
  8. Format settings, Reference frames        : 4 frames
  9. Codec ID                                 : V_MPEG4/ISO/AVC
  10. Duration                                 : 2 h 20 min
  11. Bit rate                                 : 11.7 Mb/s
  12. Width                                    : 1 920 pixels
  13. Height                                   : 1 080 pixels
  14. Display aspect ratio                     : 16:9
  15. Frame rate mode                          : Constant
  16. Frame rate                               : 23.976 (24000/1001) FPS
  17. Color space                              : YUV
  18. Chroma subsampling                       : 4:2:0
  19. Bit depth                                : 8 bits
  20. Scan type                                : Progressive
  21. Bits/(Pixel*Frame)                       : 0.236
  22. Stream size                              : 11.6 GiB (98%)
  23. Writing library                          : x264 core 157 r2935 545de2f
  24. Encoding settings                        : cabac=1 / ref=4 / deblock=1:-3:-3 / analyse=0x3:0x133 / me=umh / subme=10 / psy=1 / psy_rd=1.00:0.00 / mixed_ref=1 / me_range=32 / chroma_me=1 / trellis=2 / 8x8dct=1 / cqm=0 / deadzone=21,11 / fast_pskip=0 / chroma_qp_offset=-2 / threads=12 / lookahead_threads=3 / sliced_threads=0 / nr=0 / decimate=0 / interlaced=0 / bluray_compat=0 / constrained_intra=0 / bframes=16 / b_pyramid=2 / b_adapt=2 / b_bias=0 / direct=3 / weightb=1 / open_gop=0 / weightp=1 / keyint=240 / keyint_min=24 / scenecut=40 / intra_refresh=0 / rc_lookahead=60 / rc=crf / mbtree=0 / crf=15.5 / qcomp=0.60 / qpmin=0 / qpmax=69 / qpstep=4 / vbv_maxrate=62500 / vbv_bufsize=78125 / crf_max=0.0 / nal_hrd=none / filler=0 / ip_ratio=1.40 / pb_ratio=1.30 / aq=2:1.00
  25. Default                                  : Yes
  26. Forced                                   : No
  27. Color range                              : Limited
  28. Color primaries                          : BT.709
  29. Transfer characteristics                 : BT.709
  30. Matrix coefficients                      : BT.709

  31. Audio
  32. ID                                       : 1
  33. Format                                   : AC-3
  34. Format/Info                              : Audio Coding 3
  35. Commercial name                          : Dolby Digital
  36. Codec ID                                 : A_AC3
  37. Duration                                 : 2 h 20 min
  38. Bit rate mode                            : Constant
  39. Bit rate                                 : 192 kb/s
  40. Channel(s)                               : 2 channels
  41. Channel layout                           : L R
  42. Sampling rate                            : 48.0 kHz
  43. Frame rate                               : 31.250 FPS (1536 SPF)
  44. Bit depth                                : 16 bits
  45. Compression mode                         : Lossy
  46. Stream size                              : 194 MiB (2%)
  47. Language                                 : English
  48. Service kind                             : Complete Main
  49. Default                                  : Yes
  50. Forced                                   : No

  51. Text
  52. ID                                       : 2
  53. Format                                   : UTF-8
  54. Codec ID                                 : S_TEXT/UTF8
  55. Codec ID/Info                            : UTF-8 Plain Text
  56. Duration                                 : 2 h 8 min
  57. Bit rate                                 : 111 b/s
  58. Count of elements                        : 1907
  59. Stream size                              : 105 KiB (0%)
  60. Language                                 : English
  61. Default                                  : No
  62. Forced                                   : No

  63. Menu
  64. 00:00:00.000                             : :Introduction
  65. 00:02:15.886                             : :Cowboys & Spies: the Growth of the Action Film
  66. 00:05:19.236                             : :From Blaxploitation to Bruce Lee
  67. 00:08:02.315                             : :The Blockbuster Era
  68. 00:11:18.094                             : :Carnage & Carmageddon (Mad Max/First Blood)
  69. 00:16:34.452                             : :The Rise of a Barbarian
  70. 00:18:31.444                             : :Action Gets Funny (48 Hrs/Beverly Hills Cop)
  71. 00:20:47.204                             : :Enter Chuck Norris
  72. 00:22:50.411                             : :Cannon Films Changes the Game
  73. 00:26:15.908                             : :Now that\'s (Home) Entertainment! (VHS)
  74. 00:29:07.412                             : :Come With Me if You Want to be the Biggest Action Star in the World
  75. 00:34:41.371                             : :Cannon\'s Franchises (Death Wish 3/American Ninja)
  76. 00:37:45.054                             : :The Hong Kong Influence
  77. 00:39:09.514                             : :Action Gets Political
  78. 00:45:00.531                             : :Stallone vs Schwarzenegger
  79. 00:49:57.036                             : :Time for a Power Ballad!
  80. 00:52:18.177                             : :Won\'t Anybody Think of the Children?!
  81. 00:53:43.971                             : :High Concept Action (Aliens/Robocop/Predator)
  82. 01:03:36.938                             : :More Buddies than Cops (Lethal Weapon/Lethal Weapon 2)
  83. 01:08:00.660                             : :From Everyman to One-man Army (Die Hard/Rambo III)
  84. 01:14:23.167                             : :To the Death! (Bloodsport/Best of the Best)
  85. 01:19:11.121                             : :Sisters Doing it for Themselves
  86. 01:25:52.064                             : :Big Budget, Bigger Egos (Tango and Cash/Total Recall, T2)
  87. 01:34:39.382                             : :One Man, Two Guns, Lots of Doves
  88. 01:36:00.505                             : :From 18 Certificates to Mass-market Appeal
  89. 01:38:44.627                             : :Dinosaurs Destroy Man (Last Action Hero)
  90. 01:42:34.440                             : :Money vs Mayhem (Street Fighter)
  91. 01:46:18.205                             : :The Last Hurrah (True Lies)
  92. 01:48:54.278                             : :Getting Actors to do Action (Speed/The Rock/Matrix)
  93. 01:55:38.640                             : :Too Old for this Shit?
  94. 01:57:22.118                             : :21st-century Action (Expendables/Fast and Furious)
  95. 02:01:01.004                             : :Rise of the DTV Action Star (Sequels & Remaining Relevant)
  96. 02:03:31.529                             : :Return to Headshots (John Wick)
  97. 02:05:57.216                             : :Love for the \'80s
  98. 02:08:40.338                             : :End Credits
复制代码

寻觅最初的行动豪杰 In.Search.of.the.Last.Action.Heroes.2019.1080p.BluRay.x264-HANDJOB 11.75GB-2.png 寻觅最初的行动豪杰 In.Search.of.the.Last.Action.Heroes.2019.1080p.BluRay.x264-HANDJOB 11.75GB-3.png 寻觅最初的行动豪杰 In.Search.of.the.Last.Action.Heroes.2019.1080p.BluRay.x264-HANDJOB 11.75GB-4.png






回复

使用道具 举报

级别:专业龙套 Lv.4

注册时间
2020-1-1
最后登录
2020-7-20
听众
2
收听
0
主题
0
蓝光币
218 枚
贡献
0 点
发表于 2020-1-14 21:37:33 | 显示全部楼层

这东西我收了!谢谢楼主!中国高清电影网真好!
回复

使用道具 举报

级别:荣升主角 Lv.5

注册时间
2019-10-27
最后登录
2020-8-6
听众
4
收听
0
主题
0
蓝光币
623 枚
贡献
0 点
发表于 2020-1-14 23:32:46 | 显示全部楼层
楼主发贴辛苦了,谢谢楼主分享!我觉得中国高清电影网是注册对了!
回复

使用道具 举报

级别:领衔主演 Lv.6

注册时间
2018-2-26
最后登录
2020-8-6
听众
19
收听
0
主题
0
蓝光币
290 枚
贡献
0 点
发表于 2020-1-15 09:08:41 | 显示全部楼层

这东西我收了!谢谢楼主!中国高清电影网真好!
回复

使用道具 举报

级别:群众演员 Lv.3

注册时间
2019-11-27
最后登录
2020-2-29
听众
2
收听
0
主题
0
蓝光币
90 枚
贡献
0 点
发表于 2020-1-15 14:01:22 | 显示全部楼层
楼主发贴辛苦了,谢谢楼主分享!我觉得中国高清电影网是注册对了!
回复

使用道具 举报

级别:群众演员 Lv.3

注册时间
2019-11-4
最后登录
2020-3-4
听众
2
收听
0
主题
0
蓝光币
104 枚
贡献
0 点
发表于 2020-1-17 08:00:49 | 显示全部楼层
楼主发贴辛苦了,谢谢楼主分享!我觉得中国高清电影网是注册对了!
回复

使用道具 举报

 成长值: 2460

级别:尊贵的会员

注册时间
2020-3-1
最后登录
2020-8-7
听众
7
收听
0
主题
0
蓝光币
511 枚
贡献
0 点
发表于 2020-3-7 00:57:05 | 显示全部楼层
楼主发贴辛苦了,谢谢楼主分享!我觉得中国高清电影网是注册对了!
回复

使用道具 举报

懒得打字嘛,点击右侧快捷回复 【右侧内容,后台自定义】
您需要登录后才可以回帖 登录 | 立即注册

本版积分规则

Archiver|手机版|小黑屋| 中国高清网 ( ICP备17007870号-2 ) |网站地图 

GMT+8, 2020-8-7 11:56 , Processed in 0.175768 second(s), 39 queries .

Powered by HDchina X3.4

Copyright 2017-2019©HDchina.All right reserved

返回顶部 联系我们