查看: 425|回复: 12

[剧情片] 某处某人 Someone.Somewhere.2019.1080p.BluRay.x264-NODLABS 8.76GB

[复制链接]

 成长值: 6410

级别:资源管理组

注册时间
2017-10-20
最后登录
2020-8-7
听众
1
收听
0
主题
100960
蓝光币
179138 枚
贡献
21715 点
发表于 2020-1-13 16:31:40 | 显示全部楼层 |阅读模式
某处某人 Someone.Somewhere.2019.1080p.BluRay.x264-NODLABS 8.76GB-1.png

译  名 某处,某人 / Someone, Somewhere
片  名 Deux moi
年  代 2019
产  地 法国
类  别 剧情 / 笑剧
语  言 法语
上映日期 2019-09-11(法国)
IMDb评分  6.9/10 from 676 users
IMDb链接  https://www.imdb.com/title/tt10407272
豆瓣评分 7.9/10 from 109 users
豆瓣链接 https://movie.douban.com/subject/30403338/
片  长 110分钟
导  演 塞德里克·克拉皮斯 Cédric Klapisch
编  剧 塞德里克·克拉皮斯 Cédric Klapisch
主  演 安娜·吉拉多特 Ana Girardot
       弗朗索瓦·西维尔 Fran?ois Civil
       弗朗索瓦·贝莱昂 Fran?ois Berléand
       卡米尔·科坦 Camille Cottin
       西蒙·阿布卡瑞安 Simon Abkarian


标  签 法国 | 法国电影 | 恋爱 | 剧情 | 城市孤独 | 2019 | 法语 | 法影

简  介  

  三十歲的雷米和米蘭妮住在巴黎同一區。他們約見心理醫生,目标是要認識「自我」。他們都是得了大城市孤獨症的受害者,大师都以為在現今這以極速網絡聯繫的天下中,交朋友會是很轻易的事。在不知的情況下,二人分別走兩條指向同一偏向的路…… 朝向一個愛情故事的路?
  1. Video
  2. ID                                       : 1
  3. Format                                   : AVC
  4. Format/Info                              : Advanced Video Codec
  5. Format profile                           : High@L4
  6. Format settings                          : CABAC / 4 Ref Frames
  7. Format settings, CABAC                   : Yes
  8. Format settings, Reference frames        : 4 frames
  9. Codec ID                                 : V_MPEG4/ISO/AVC
  10. Duration                                 : 1 h 50 min
  11. Bit rate                                 : 9 843 kb/s
  12. Width                                    : 1 920 pixels
  13. Height                                   : 1 040 pixels
  14. Display aspect ratio                     : 1.85:1
  15. Frame rate mode                          : Constant
  16. Frame rate                               : 23.976 (24000/1001) FPS
  17. Color space                              : YUV
  18. Chroma subsampling                       : 4:2:0
  19. Bit depth                                : 8 bits
  20. Scan type                                : Progressive
  21. Bits/(Pixel*Frame)                       : 0.206
  22. Stream size                              : 7.41 GiB (85%)
  23. Writing library                          : x264 core 159 r2991 1771b55
  24. Encoding settings                        : cabac=1 / ref=4 / deblock=1:-3:-3 / analyse=0x3:0x113 / me=umh / subme=8 / psy=1 / psy_rd=1.00:0.00 / mixed_ref=1 / me_range=32 / chroma_me=1 / trellis=2 / 8x8dct=1 / cqm=0 / deadzone=21,11 / fast_pskip=1 / chroma_qp_offset=-2 / threads=32 / lookahead_threads=5 / sliced_threads=0 / nr=0 / decimate=1 / interlaced=0 / bluray_compat=0 / constrained_intra=0 / bframes=3 / b_pyramid=2 / b_adapt=2 / b_bias=0 / direct=3 / weightb=1 / open_gop=0 / weightp=2 / keyint=240 / keyint_min=24 / scenecut=40 / intra_refresh=0 / rc_lookahead=50 / rc=2pass / mbtree=1 / bitrate=9843 / ratetol=1.0 / qcomp=0.60 / qpmin=0 / qpmax=69 / qpstep=4 / cplxblur=20.0 / qblur=0.5 / ip_ratio=1.40 / aq=3:0.80
  25. Default                                  : Yes
  26. Forced                                   : No
  27. Statistics Tags Issue                    : no_variable_data 1970-01-01 00:00:00 / no_variable_data 2010-02-22 21:41:29
  28. FromStats_BitRate                        : 9838847
  29. FromStats_Duration                       : 01:50:15.860000000
  30. FromStats_FrameCount                     : 158622
  31. FromStats_StreamSize                     : 8136554417

  32. Audio
  33. ID                                       : 2
  34. Format                                   : DTS
  35. Format/Info                              : Digital Theater Systems
  36. Codec ID                                 : A_DTS
  37. Duration                                 : 1 h 50 min
  38. Bit rate mode                            : Constant
  39. Bit rate                                 : 1 509 kb/s
  40. Channel(s)                               : 6 channels
  41. Channel layout                           : C L R Ls Rs LFE
  42. Sampling rate                            : 48.0 kHz
  43. Frame rate                               : 93.750 FPS (512 SPF)
  44. Bit depth                                : 24 bits
  45. Compression mode                         : Lossy
  46. Stream size                              : 1.16 GiB (13%)
  47. Language                                 : French
  48. Default                                  : Yes
  49. Forced                                   : No
  50. Statistics Tags Issue                    : no_variable_data 1970-01-01 00:00:00 / no_variable_data 2010-02-22 21:41:29
  51. FromStats_BitRate                        : 1508999
  52. FromStats_Duration                       : 01:50:15.862000000
  53. FromStats_FrameCount                     : 620237
  54. FromStats_StreamSize                     : 1247916844

  55. Text
  56. ID                                       : 3
  57. Format                                   : UTF-8
  58. Codec ID                                 : S_TEXT/UTF8
  59. Codec ID/Info                            : UTF-8 Plain Text
  60. Title                                    : Forced
  61. Language                                 : English
  62. Default                                  : Yes
  63. Forced                                   : Yes
  64. Statistics Tags Issue                    : no_variable_data 1970-01-01 00:00:00 / no_variable_data 2010-02-22 21:41:29
  65. FromStats_BitRate                        : 46
  66. FromStats_Duration                       : 01:47:29.235000000
  67. FromStats_FrameCount                     : 1439
  68. FromStats_StreamSize                     : 37717

  69. Menu
  70. 00:00:00.000                             : en:Chapter 01
  71. 00:09:34.115                             : en:Chapter 02
  72. 00:20:51.625                             : en:Chapter 03
  73. 00:30:21.820                             : en:Chapter 04
  74. 00:43:44.956                             : en:Chapter 05
  75. 00:54:03.657                             : en:Chapter 06
  76. 01:03:48.950                             : en:Chapter 07
  77. 01:13:58.434                             : en:Chapter 08
  78. 01:22:39.788                             : en:Chapter 09
  79. 01:28:49.324                             : en:Chapter 10
  80. 01:37:53.659                             : en:Chapter 11
  81. 01:46:14.201                             : en:Chapter 12
复制代码

163104jkxhwxrctxrmzjp0.png






回复

使用道具 举报

级别:荣升主角 Lv.5

注册时间
2019-11-28
最后登录
2020-8-7
听众
4
收听
0
主题
0
蓝光币
9 枚
贡献
0 点
发表于 2020-1-13 17:44:10 | 显示全部楼层
楼主发贴辛苦了,谢谢楼主分享!我觉得中国高清电影网是注册对了!
回复

使用道具 举报

级别:专业龙套 Lv.4

注册时间
2019-12-9
最后登录
2020-8-2
听众
6
收听
0
主题
0
蓝光币
216 枚
贡献
0 点
QQ
发表于 2020-1-13 18:19:45 | 显示全部楼层
楼主发贴辛苦了,谢谢楼主分享!我觉得中国高清电影网是注册对了!
回复

使用道具 举报

 成长值: 4165

级别:尊贵的会员

注册时间
2019-11-26
最后登录
2020-7-19
听众
3
收听
0
主题
0
蓝光币
478 枚
贡献
0 点
发表于 2020-1-13 19:23:19 | 显示全部楼层
楼主发贴辛苦了,谢谢楼主分享!我觉得中国高清电影网是注册对了!
回复

使用道具 举报

级别:荣升主角 Lv.5

注册时间
2019-1-18
最后登录
2020-8-6
听众
17
收听
0
主题
0
蓝光币
334 枚
贡献
0 点
发表于 2020-1-13 21:02:48 | 显示全部楼层
楼主辛苦了,谢谢分享
回复

使用道具 举报

 成长值: 2905

级别:尊贵的会员

注册时间
2019-1-22
最后登录
2020-8-5
听众
17
收听
0
主题
1
蓝光币
379 枚
贡献
1 点
发表于 2020-1-13 23:23:20 | 显示全部楼层
楼主发贴辛苦了,谢谢楼主分享!我觉得中国高清电影网是注册对了!
回复

使用道具 举报

级别:荣升主角 Lv.5

注册时间
2019-10-27
最后登录
2020-8-6
听众
4
收听
0
主题
0
蓝光币
623 枚
贡献
0 点
发表于 2020-1-13 23:39:04 | 显示全部楼层
楼主发贴辛苦了,谢谢楼主分享!我觉得中国高清电影网是注册对了!
回复

使用道具 举报

 成长值: 4075

级别:尊贵的会员

注册时间
2019-12-4
最后登录
2020-7-23
听众
3
收听
0
主题
0
蓝光币
8 枚
贡献
0 点
发表于 2020-1-14 22:09:08 | 显示全部楼层
楼主发贴辛苦了,谢谢楼主分享!我觉得中国高清电影网是注册对了!
回复

使用道具 举报

级别:初级观众 Lv.1

注册时间
2020-1-17
最后登录
2020-1-18
听众
2
收听
0
主题
0
蓝光币
0 枚
贡献
0 点
发表于 2020-1-18 15:41:17 | 显示全部楼层
阿弥陀佛阿弥陀佛
回复

使用道具 举报

 成长值: 2460

级别:尊贵的会员

注册时间
2020-3-1
最后登录
2020-8-7
听众
7
收听
0
主题
0
蓝光币
511 枚
贡献
0 点
发表于 2020-3-7 01:13:18 | 显示全部楼层
楼主发贴辛苦了,谢谢楼主分享!我觉得中国高清电影网是注册对了!
回复

使用道具 举报

懒得打字嘛,点击右侧快捷回复 【右侧内容,后台自定义】
您需要登录后才可以回帖 登录 | 立即注册

本版积分规则

Archiver|手机版|小黑屋| 中国高清网 ( ICP备17007870号-2 ) |网站地图 

GMT+8, 2020-8-7 12:22 , Processed in 0.190953 second(s), 40 queries .

Powered by HDchina X3.4

Copyright 2017-2019©HDchina.All right reserved

返回顶部 联系我们