查看: 421|回复: 1

[10bit.SDR] 丧尸乐园2 Zombieland.Double.Tap.2019.2160p.BluRay.x265.10bit.SDR.DTS-X.7.1-SWTYBLZ 20.37GB

[复制链接]

 成长值: 3900

级别:资源管理组

注册时间
2017-10-20
最后登录
2020-1-28
听众
1
收听
0
主题
90930
蓝光币
86510 枚
贡献
15292 点
发表于 2020-1-10 23:05:11 | 显示全部楼层 |阅读模式
丧尸乐园2 Zombieland.Double.Tap.2019.2160p.BluRay.x265.10bit.SDR.DTS-X.7.1-SWTYBLZ 20.37GB-1.png

译  名 丧尸乐园2 / Zombieland 2 / 丧尸乐园2:双击 / 丧尸乐园:连环尸杀(港) / 僵尸之地2 / 僵尸之地2:双击 / 尸乐园:脏比双拼(台)
片  名 Zombieland: Double Tap
年  代 2019
产  地 美国 / 加拿大
类  别 笑剧 / 行动 / 可骇
语  言 英语
上映日期 2019-10-09(中国台湾) / 2019-10-18(美国)
IMDb评分  6.9/10 from 61783 users
IMDb链接  https://www.imdb.com/title/tt1560220
豆瓣评分 7.0/10 from 17907 users
豆瓣链接 https://movie.douban.com/subject/4185834/
片  长 99分钟
导  演 鲁本·弗雷斯彻 Ruben Fleischer
编  剧 戴夫·卡拉汉姆 Dave Callaham / 瑞特·里斯 Rhett Reese / 保罗·韦尼克 Paul Wernick
主  演 伍迪·哈里森 Woody Harrelson
       杰西·艾森伯格 Jesse Eisenberg
       艾玛·斯通 Emma Stone
       阿比盖尔·布雷斯林 Abigail Breslin
       佐伊·达奇 Zoey Deutch
       阿万·乔贾 Avan Jogia
       罗莎里奥·道森 Rosario Dawson
       卢克·威尔逊 Luke Wilson
       托马斯·米德蒂奇 Thomas Middleditch
       维多利亚·哈尔 Victoria Hall
       维克多·里维拉 Victor Rivera
       伊恩·格雷格 Ian Gregg
       德文·莫吉卡 Devin Mojica
       瑞秋·鲁特雷尔 Rachel Luttrell
       约翰·迪克森 John Dixon
       比尔·默瑞 Bill Murray
       阿尔·罗克 Al Roker
       莉莉·埃斯特凡 Lili Estefan
       塞尔吉奥·布里奥内斯 Sergio Briones
       蒂莫西·卡尔 Timothy Carr
       扎拉·麦克道威尔 Zara McDowell
       迪索·拉莫斯 Diezel Ramos


标  签 笑剧 | 丧尸 | 美国 | 搞笑 | 僵尸 | 2019 | 可骇 | 行动

简  介  

  《僵尸之地》是鲁本·弗雷斯彻的导演童贞作,上映后好评如潮——获得了烂番茄89%的惊人好评率,此片一举奠基了鲁本在好莱坞贸易范畴的职位。首映周末以2500万美圆登顶冠军的《僵尸之地》,是遭到几年前《僵尸肖恩》的启发停止创作的,影片报告了一种致命病毒囊括了美国,只要被病毒传染,就会酿成僵尸。终极,只要几个幸存者没有被传抱病毒,决议逃离,获得保存的机遇。两本性情悬殊的汉子凑到了一路,前者看待僵尸的打击别故意得(制定了一大堆“法则”),后者则是个暴力崇尚者,诡计杀光一切的僵尸。在他们流亡的途中,相逢了两个精明的女幸存者,他们四人决议一路分享对于僵尸的经历,获得逃生的机遇。但是,在杀戮进程中,他们遭受的危险超越了一切人的设想。依照好莱坞卖座片的范例纪律,像《僵尸之地》这类投资仅2000多万美圆,没有一线大牌主演的僵尸片,根基都是烂片集合营确当家老迈,但此片的成功却来的很是迅猛。这全归功于导演的创意,影片结尾飞腾处在游乐园大战僵尸一段,观赏性极强。
  《僵尸之地》的主演杰西·艾森伯格、伍迪·哈里森、艾玛·斯通、阿比盖尔·布莱斯林,今朝已肯定愿意回归剧组加入续集的拍摄,但剧本仍然在创作当中,估计10年上半年开机。
  电影《僵尸之地》(Zombieland)导演鲁本.费雷斯彻(Ruben Fleischer)克日在接管采访时流露《僵尸之地》续集有望2010年年末正式开拍。
  “我们正在与制片方打仗,我们有一些点子它们也很是喜好。我们必定会以3D的形式拍摄这部续集。索尼现在已经有自己的3D部分了,我们将在周二(3月2日)参观索尼的3D部分。我晓得一切原班人马都很冲动回归续集,这将是1部拍摄进程非常出色风趣的电影。剧本行将起头创作,我希望能在今年年末大概明年年头正式开拍《僵尸之地2》。”
  1. Video
  2. ID                                       : 1
  3. Format                                   : HEVC
  4. Format/Info                              : High Efficiency Video Coding
  5. Format profile                           : Main High@L4@High
  6. Codec ID                                 : V_MPEGH/ISO/HEVC
  7. Duration                                 : 1 h 39 min
  8. Bit rate                                 : 22.8 Mb/s
  9. Width                                    : 3 840 pixels
  10. Height                                   : 1 606 pixels
  11. Display aspect ratio                     : 2.40:1
  12. Frame rate mode                          : Constant
  13. Frame rate                               : 23.976 (24000/1001) FPS
  14. Color space                              : YUV
  15. Chroma subsampling                       : 4:2:0
  16. Bit depth                                : 10 bits
  17. Bits/(Pixel*Frame)                       : 0.154
  18. Stream size                              : 15.8 GiB (78%)
  19. Title                                    : Zombieland.Double.Tap.2019.2160p.BluRay.x265.10bit.SDR.DTS-X.7.1-SWTYBLZ
  20. Writing library                          : x265 3.0ed72af837053:[Windows][GCC 8.2.0][64 bit] 10bit
  21. Encoding settings                        : cpuid=1111039 / frame-threads=16 / numa-pools=40 / wpp / no-pmode / no-pme / no-psnr / no-ssim / log-level=2 / input-csp=1 / input-res=3840x1606 / interlace=0 / total-frames=142464 / level-idc=51 / high-tier=1 / uhd-bd=0 / ref=3 / no-allow-non-conformance / repeat-headers / annexb / aud / hrd / info / hash=0 / no-temporal-layers / no-open-gop / min-keyint=1 / keyint=24 / gop-lookahead=0 / bframes=4 / b-adapt=2 / b-pyramid / bframe-bias=0 / rc-lookahead=25 / lookahead-slices=4 / scenecut=40 / radl=0 / no-splice / no-intra-refresh / ctu=64 / min-cu-size=8 / no-rect / no-amp / max-tu-size=32 / tu-inter-depth=1 / tu-intra-depth=1 / limit-tu=0 / rdoq-level=0 / dynamic-rd=0.00 / no-ssim-rd / signhide / no-tskip / nr-intra=0 / nr-inter=0 / no-constrained-intra / strong-intra-smoothing / max-merge=2 / limit-refs=3 / no-limit-modes / me=1 / subme=2 / merange=57 / temporal-mvp / weightp / no-weightb / no-analyze-src-pics / deblock=0:0 / no-sao / no-sao-non-deblock / rd=3 / no-early-skip / rskip / no-fast-intra / no-tskip-fast / no-cu-lossless / no-b-intra / no-splitrd-skip / rdpenalty=0 / psy-rd=2.00 / psy-rdoq=0.00 / no-rd-refine / no-lossless / cbqpoffs=0 / crqpoffs=0 / rc=crf / crf=16.0 / qcomp=0.60 / qpstep=4 / stats-write=0 / stats-read=0 / vbv-maxrate=160000 / vbv-bufsize=160000 / vbv-init=0.9 / crf-max=0.0 / crf-min=0.0 / ipratio=1.40 / pbratio=1.30 / aq-mode=1 / aq-strength=1.00 / cutree / zone-count=0 / no-strict-cbr / qg-size=32 / no-rc-grain / qpmax=69 / qpmin=0 / no-const-vbv / sar=1 / overscan=0 / videoformat=5 / range=0 / colorprim=2 / transfer=2 / colormatrix=2 / chromaloc=0 / display-window=0 / max-cll=0,0 / min-luma=0 / max-luma=1023 / log2-max-poc-lsb=8 / vui-timing-info / vui-hrd-info / slices=1 / opt-qp-pps / opt-ref-list-length-pps / no-multi-pass-opt-rps / scenecut-bias=0.05 / no-opt-cu-delta-qp / no-aq-motion / no-hdr / no-hdr-opt / no-dhdr10-opt / no-idr-recovery-sei / analysis-reuse-level=5 / scale-factor=0 / refine-intra=0 / refine-inter=0 / refine-mv=0 / refine-ctu-distortion=0 / no-limit-sao / ctu-info=0 / no-lowpass-dct / refine-analysis-type=0 / copy-pic=1 / max-ausize-factor=1.0 / no-dynamic-refine / no-single-sei / no-hevc-aq / qp-adaptation-range=1.00
  22. Language                                 : English
  23. Default                                  : Yes
  24. Forced                                   : No

  25. Audio #1
  26. ID                                       : 2
  27. Format                                   : DTS XLL
  28. Format/Info                              : Digital Theater Systems
  29. Commercial name                          : DTS-HD Master Audio
  30. Codec ID                                 : A_DTS
  31. Duration                                 : 1 h 39 min
  32. Bit rate mode                            : Variable
  33. Bit rate                                 : 5 292 kb/s
  34. Channel(s)                               : 8 channels
  35. Channel layout                           : C L R LFE Lb Rb Lss Rss
  36. Sampling rate                            : 48.0 kHz
  37. Frame rate                               : 93.750 FPS (512 SPF)
  38. Bit depth                                : 24 bits
  39. Compression mode                         : Lossless
  40. Stream size                              : 3.66 GiB (18%)
  41. Title                                    : Zombieland.Double.Tap.2019.2160p.BluRay.x265.10bit.SDR.DTS-X.7.1-SWTYBLZ
  42. Language                                 : English
  43. Default                                  : Yes
  44. Forced                                   : No

  45. Audio #2
  46. ID                                       : 3
  47. Format                                   : AC-3
  48. Format/Info                              : Audio Coding 3
  49. Commercial name                          : Dolby Digital
  50. Codec ID                                 : A_AC3
  51. Duration                                 : 1 h 39 min
  52. Bit rate mode                            : Constant
  53. Bit rate                                 : 640 kb/s
  54. Channel(s)                               : 6 channels
  55. Channel layout                           : L R C LFE Ls Rs
  56. Sampling rate                            : 48.0 kHz
  57. Frame rate                               : 31.250 FPS (1536 SPF)
  58. Compression mode                         : Lossy
  59. Stream size                              : 453 MiB (2%)
  60. Title                                    : Zombieland.Double.Tap.2019.2160p.BluRay.x265.10bit.SDR.DTS-X.7.1-SWTYBLZ
  61. Language                                 : English
  62. Service kind                             : Complete Main
  63. Default                                  : No
  64. Forced                                   : No

  65. Text #1
  66. ID                                       : 4
  67. Format                                   : UTF-8
  68. Codec ID                                 : S_TEXT/UTF8
  69. Codec ID/Info                            : UTF-8 Plain Text
  70. Duration                                 : 1 h 38 min
  71. Bit rate                                 : 76 b/s
  72. Count of elements                        : 1414
  73. Stream size                              : 55.2 KiB (0%)
  74. Title                                    : English-SRT
  75. Language                                 : English
  76. Default                                  : Yes
  77. Forced                                   : No

  78. Text #2
  79. ID                                       : 5
  80. Format                                   : UTF-8
  81. Codec ID                                 : S_TEXT/UTF8
  82. Codec ID/Info                            : UTF-8 Plain Text
  83. Duration                                 : 1 h 38 min
  84. Bit rate                                 : 84 b/s
  85. Count of elements                        : 1599
  86. Stream size                              : 61.1 KiB (0%)
  87. Title                                    : English-SDH-SRT
  88. Language                                 : English
  89. Default                                  : No
  90. Forced                                   : No

  91. Text #3
  92. ID                                       : 6
  93. Format                                   : PGS
  94. Muxing mode                              : zlib
  95. Codec ID                                 : S_HDMV/PGS
  96. Codec ID/Info                            : Picture based subtitle format used on BDs/HD-DVDs
  97. Duration                                 : 1 h 38 min
  98. Bit rate                                 : 51.7 kb/s
  99. Count of elements                        : 3210
  100. Stream size                              : 36.4 MiB (0%)
  101. Title                                    : English-PGS
  102. Language                                 : English
  103. Default                                  : No
  104. Forced                                   : No

  105. Text #4
  106. ID                                       : 7
  107. Format                                   : PGS
  108. Muxing mode                              : zlib
  109. Codec ID                                 : S_HDMV/PGS
  110. Codec ID/Info                            : Picture based subtitle format used on BDs/HD-DVDs
  111. Duration                                 : 1 h 38 min
  112. Bit rate                                 : 46.4 kb/s
  113. Count of elements                        : 2844
  114. Stream size                              : 32.6 MiB (0%)
  115. Title                                    : English-SDH-PGS
  116. Language                                 : English
  117. Default                                  : No
  118. Forced                                   : No

  119. Text #5
  120. ID                                       : 8
  121. Format                                   : PGS
  122. Muxing mode                              : zlib
  123. Codec ID                                 : S_HDMV/PGS
  124. Codec ID/Info                            : Picture based subtitle format used on BDs/HD-DVDs
  125. Duration                                 : 28 min 6 s
  126. Bit rate                                 : 487 b/s
  127. Count of elements                        : 14
  128. Stream size                              : 100 KiB (0%)
  129. Title                                    : English-PGS
  130. Language                                 : English
  131. Default                                  : No
  132. Forced                                   : No

  133. Text #6
  134. ID                                       : 9
  135. Format                                   : PGS
  136. Muxing mode                              : zlib
  137. Codec ID                                 : S_HDMV/PGS
  138. Codec ID/Info                            : Picture based subtitle format used on BDs/HD-DVDs
  139. Duration                                 : 1 h 38 min
  140. Bit rate                                 : 51.8 kb/s
  141. Count of elements                        : 3210
  142. Stream size                              : 36.4 MiB (0%)
  143. Title                                    : English-SDH-PGS
  144. Language                                 : English
  145. Default                                  : No
  146. Forced                                   : No

  147. Text #7
  148. ID                                       : 10
  149. Format                                   : PGS
  150. Muxing mode                              : zlib
  151. Codec ID                                 : S_HDMV/PGS
  152. Codec ID/Info                            : Picture based subtitle format used on BDs/HD-DVDs
  153. Duration                                 : 1 h 38 min
  154. Bit rate                                 : 24.5 kb/s
  155. Count of elements                        : 3459
  156. Stream size                              : 17.2 MiB (0%)
  157. Title                                    : Arabic-PGS
  158. Language                                 : Arabic
  159. Default                                  : No
  160. Forced                                   : No

  161. Text #8
  162. ID                                       : 11
  163. Format                                   : PGS
  164. Muxing mode                              : zlib
  165. Codec ID                                 : S_HDMV/PGS
  166. Codec ID/Info                            : Picture based subtitle format used on BDs/HD-DVDs
  167. Duration                                 : 1 h 38 min
  168. Bit rate                                 : 33.8 kb/s
  169. Count of elements                        : 3485
  170. Stream size                              : 23.8 MiB (0%)
  171. Title                                    : Chinese-PGS
  172. Language                                 : Chinese
  173. Default                                  : No
  174. Forced                                   : No

  175. Text #9
  176. ID                                       : 12
  177. Format                                   : PGS
  178. Muxing mode                              : zlib
  179. Codec ID                                 : S_HDMV/PGS
  180. Codec ID/Info                            : Picture based subtitle format used on BDs/HD-DVDs
  181. Duration                                 : 1 h 38 min
  182. Bit rate                                 : 37.8 kb/s
  183. Count of elements                        : 3396
  184. Stream size                              : 26.6 MiB (0%)
  185. Title                                    : Chinese-PGS
  186. Language                                 : Chinese
  187. Default                                  : No
  188. Forced                                   : No

  189. Text #10
  190. ID                                       : 13
  191. Format                                   : PGS
  192. Muxing mode                              : zlib
  193. Codec ID                                 : S_HDMV/PGS
  194. Codec ID/Info                            : Picture based subtitle format used on BDs/HD-DVDs
  195. Duration                                 : 1 h 38 min
  196. Bit rate                                 : 34.3 kb/s
  197. Count of elements                        : 3492
  198. Stream size                              : 24.1 MiB (0%)
  199. Title                                    : Chinese-PGS
  200. Language                                 : Chinese
  201. Default                                  : No
  202. Forced                                   : No

  203. Text #11
  204. ID                                       : 14
  205. Format                                   : PGS
  206. Muxing mode                              : zlib
  207. Codec ID                                 : S_HDMV/PGS
  208. Codec ID/Info                            : Picture based subtitle format used on BDs/HD-DVDs
  209. Duration                                 : 1 h 38 min
  210. Bit rate                                 : 42.5 kb/s
  211. Count of elements                        : 3369
  212. Stream size                              : 29.9 MiB (0%)
  213. Title                                    : Czech-PGS
  214. Language                                 : Czech
  215. Default                                  : No
  216. Forced                                   : No

  217. Text #12
  218. ID                                       : 15
  219. Format                                   : PGS
  220. Muxing mode                              : zlib
  221. Codec ID                                 : S_HDMV/PGS
  222. Codec ID/Info                            : Picture based subtitle format used on BDs/HD-DVDs
  223. Duration                                 : 1 h 38 min
  224. Bit rate                                 : 37.7 kb/s
  225. Count of elements                        : 3233
  226. Stream size                              : 26.5 MiB (0%)
  227. Title                                    : French-PGS
  228. Language                                 : French
  229. Default                                  : No
  230. Forced                                   : No

  231. Text #13
  232. ID                                       : 16
  233. Format                                   : PGS
  234. Muxing mode                              : zlib
  235. Codec ID                                 : S_HDMV/PGS
  236. Codec ID/Info                            : Picture based subtitle format used on BDs/HD-DVDs
  237. Duration                                 : 1 h 38 min
  238. Bit rate                                 : 46.2 kb/s
  239. Count of elements                        : 2932
  240. Stream size                              : 32.5 MiB (0%)
  241. Title                                    : Greek-PGS
  242. Language                                 : Greek
  243. Default                                  : No
  244. Forced                                   : No

  245. Text #14
  246. ID                                       : 17
  247. Format                                   : PGS
  248. Muxing mode                              : zlib
  249. Codec ID                                 : S_HDMV/PGS
  250. Codec ID/Info                            : Picture based subtitle format used on BDs/HD-DVDs
  251. Duration                                 : 1 h 38 min
  252. Bit rate                                 : 40.7 kb/s
  253. Count of elements                        : 2918
  254. Stream size                              : 28.6 MiB (0%)
  255. Title                                    : Hungarian-PGS
  256. Language                                 : Hungarian
  257. Default                                  : No
  258. Forced                                   : No

  259. Text #15
  260. ID                                       : 18
  261. Format                                   : PGS
  262. Muxing mode                              : zlib
  263. Codec ID                                 : S_HDMV/PGS
  264. Codec ID/Info                            : Picture based subtitle format used on BDs/HD-DVDs
  265. Duration                                 : 1 h 38 min
  266. Bit rate                                 : 45.6 kb/s
  267. Count of elements                        : 3345
  268. Stream size                              : 32.1 MiB (0%)
  269. Title                                    : Indonesian-PGS
  270. Language                                 : Indonesian
  271. Default                                  : No
  272. Forced                                   : No

  273. Text #16
  274. ID                                       : 19
  275. Format                                   : PGS
  276. Muxing mode                              : zlib
  277. Codec ID                                 : S_HDMV/PGS
  278. Codec ID/Info                            : Picture based subtitle format used on BDs/HD-DVDs
  279. Duration                                 : 1 h 38 min
  280. Bit rate                                 : 34.6 kb/s
  281. Count of elements                        : 3504
  282. Stream size                              : 24.3 MiB (0%)
  283. Title                                    : Korean-PGS
  284. Language                                 : Korean
  285. Default                                  : No
  286. Forced                                   : No

  287. Text #17
  288. ID                                       : 20
  289. Format                                   : PGS
  290. Muxing mode                              : zlib
  291. Codec ID                                 : S_HDMV/PGS
  292. Codec ID/Info                            : Picture based subtitle format used on BDs/HD-DVDs
  293. Duration                                 : 1 h 38 min
  294. Bit rate                                 : 53.4 kb/s
  295. Count of elements                        : 3010
  296. Stream size                              : 37.5 MiB (0%)
  297. Title                                    : Malay-PGS
  298. Language                                 : Malay
  299. Default                                  : No
  300. Forced                                   : No

  301. Text #18
  302. ID                                       : 21
  303. Format                                   : PGS
  304. Muxing mode                              : zlib
  305. Codec ID                                 : S_HDMV/PGS
  306. Codec ID/Info                            : Picture based subtitle format used on BDs/HD-DVDs
  307. Duration                                 : 1 h 38 min
  308. Bit rate                                 : 37.2 kb/s
  309. Count of elements                        : 3308
  310. Stream size                              : 26.2 MiB (0%)
  311. Title                                    : Polish-PGS
  312. Language                                 : Polish
  313. Default                                  : No
  314. Forced                                   : No

  315. Text #19
  316. ID                                       : 22
  317. Format                                   : PGS
  318. Muxing mode                              : zlib
  319. Codec ID                                 : S_HDMV/PGS
  320. Codec ID/Info                            : Picture based subtitle format used on BDs/HD-DVDs
  321. Duration                                 : 1 h 38 min
  322. Bit rate                                 : 42.4 kb/s
  323. Count of elements                        : 3356
  324. Stream size                              : 29.8 MiB (0%)
  325. Title                                    : Portuguese-PGS
  326. Language                                 : Portuguese
  327. Default                                  : No
  328. Forced                                   : No

  329. Text #20
  330. ID                                       : 23
  331. Format                                   : PGS
  332. Muxing mode                              : zlib
  333. Codec ID                                 : S_HDMV/PGS
  334. Codec ID/Info                            : Picture based subtitle format used on BDs/HD-DVDs
  335. Duration                                 : 1 h 38 min
  336. Bit rate                                 : 45.7 kb/s
  337. Count of elements                        : 3218
  338. Stream size                              : 32.1 MiB (0%)
  339. Title                                    : Portuguese-PGS
  340. Language                                 : Portuguese
  341. Default                                  : No
  342. Forced                                   : No

  343. Text #21
  344. ID                                       : 24
  345. Format                                   : PGS
  346. Muxing mode                              : zlib
  347. Codec ID                                 : S_HDMV/PGS
  348. Codec ID/Info                            : Picture based subtitle format used on BDs/HD-DVDs
  349. Duration                                 : 1 h 38 min
  350. Bit rate                                 : 42.9 kb/s
  351. Count of elements                        : 3129
  352. Stream size                              : 30.2 MiB (0%)
  353. Title                                    : Romanian-PGS
  354. Language                                 : Romanian
  355. Default                                  : No
  356. Forced                                   : No

  357. Text #22
  358. ID                                       : 25
  359. Format                                   : PGS
  360. Muxing mode                              : zlib
  361. Codec ID                                 : S_HDMV/PGS
  362. Codec ID/Info                            : Picture based subtitle format used on BDs/HD-DVDs
  363. Duration                                 : 1 h 38 min
  364. Bit rate                                 : 33.7 kb/s
  365. Count of elements                        : 3464
  366. Stream size                              : 23.7 MiB (0%)
  367. Title                                    : Slovak-PGS
  368. Language                                 : Slovak
  369. Default                                  : No
  370. Forced                                   : No

  371. Text #23
  372. ID                                       : 26
  373. Format                                   : PGS
  374. Muxing mode                              : zlib
  375. Codec ID                                 : S_HDMV/PGS
  376. Codec ID/Info                            : Picture based subtitle format used on BDs/HD-DVDs
  377. Duration                                 : 1 h 38 min
  378. Bit rate                                 : 35.9 kb/s
  379. Count of elements                        : 2682
  380. Stream size                              : 25.2 MiB (0%)
  381. Title                                    : Slovenian-PGS
  382. Language                                 : Slovenian
  383. Default                                  : No
  384. Forced                                   : No

  385. Text #24
  386. ID                                       : 27
  387. Format                                   : PGS
  388. Muxing mode                              : zlib
  389. Codec ID                                 : S_HDMV/PGS
  390. Codec ID/Info                            : Picture based subtitle format used on BDs/HD-DVDs
  391. Duration                                 : 1 h 38 min
  392. Bit rate                                 : 43.3 kb/s
  393. Count of elements                        : 3380
  394. Stream size                              : 30.4 MiB (0%)
  395. Title                                    : Spanish-PGS
  396. Language                                 : Spanish
  397. Default                                  : No
  398. Forced                                   : No

  399. Text #25
  400. ID                                       : 28
  401. Format                                   : PGS
  402. Muxing mode                              : zlib
  403. Codec ID                                 : S_HDMV/PGS
  404. Codec ID/Info                            : Picture based subtitle format used on BDs/HD-DVDs
  405. Duration                                 : 1 h 38 min
  406. Bit rate                                 : 43.8 kb/s
  407. Count of elements                        : 3343
  408. Stream size                              : 30.8 MiB (0%)
  409. Title                                    : Spanish-PGS
  410. Language                                 : Spanish
  411. Default                                  : No
  412. Forced                                   : No

  413. Text #26
  414. ID                                       : 29
  415. Format                                   : PGS
  416. Muxing mode                              : zlib
  417. Codec ID                                 : S_HDMV/PGS
  418. Codec ID/Info                            : Picture based subtitle format used on BDs/HD-DVDs
  419. Duration                                 : 1 h 38 min
  420. Bit rate                                 : 33.7 kb/s
  421. Count of elements                        : 3488
  422. Stream size                              : 23.7 MiB (0%)
  423. Title                                    : Thai-PGS
  424. Language                                 : Thai
  425. Default                                  : No
  426. Forced                                   : No

  427. Menu
  428. 00:00:00.000                             : en:Chapter 01
  429. 00:05:01.134                             : en:Chapter 02
  430. 00:11:08.000                             : en:Chapter 03
  431. 00:15:24.173                             : en:Chapter 04
  432. 00:21:16.191                             : en:Chapter 05
  433. 00:29:15.545                             : en:Chapter 06
  434. 00:36:55.421                             : en:Chapter 07
  435. 00:44:03.015                             : en:Chapter 08
  436. 00:50:12.968                             : en:Chapter 09
  437. 00:57:52.510                             : en:Chapter 10
  438. 01:03:51.869                             : en:Chapter 11
  439. 01:06:50.047                             : en:Chapter 12
  440. 01:10:12.124                             : en:Chapter 13
  441. 01:15:40.494                             : en:Chapter 14
  442. 01:23:45.311                             : en:Chapter 15
  443. 01:29:48.216                             : en:Chapter 16
复制代码

丧尸乐园2 Zombieland.Double.Tap.2019.2160p.BluRay.x265.10bit.SDR.DTS-X.7.1-SWTYBLZ 20.37GB-2.png 丧尸乐园2 Zombieland.Double.Tap.2019.2160p.BluRay.x265.10bit.SDR.DTS-X.7.1-SWTYBLZ 20.37GB-3.png 丧尸乐园2 Zombieland.Double.Tap.2019.2160p.BluRay.x265.10bit.SDR.DTS-X.7.1-SWTYBLZ 20.37GB-4.png 丧尸乐园2 Zombieland.Double.Tap.2019.2160p.BluRay.x265.10bit.SDR.DTS-X.7.1-SWTYBLZ 20.37GB-5.png 丧尸乐园2 Zombieland.Double.Tap.2019.2160p.BluRay.x265.10bit.SDR.DTS-X.7.1-SWTYBLZ 20.37GB-6.png 丧尸乐园2 Zombieland.Double.Tap.2019.2160p.BluRay.x265.10bit.SDR.DTS-X.7.1-SWTYBLZ 20.37GB-7.png 丧尸乐园2 Zombieland.Double.Tap.2019.2160p.BluRay.x265.10bit.SDR.DTS-X.7.1-SWTYBLZ 20.37GB-8.png






本帖隐藏的下载地址需要VIP会员才可阅读,您需要升级才可阅读,点击这里升级VIP
VIP会员免费任意下载本站所有资源!---点击开通
回复

使用道具 举报

级别:初级观众 Lv.1

注册时间
2020-1-12
最后登录
2020-1-21
听众
1
收听
0
主题
0
蓝光币
1 枚
贡献
0 点
发表于 2020-1-12 19:33:11 | 显示全部楼层

楼主发贴辛苦了,谢谢楼主分享!我觉得中国高清电影网是注册对了!
VIP会员免费任意下载本站所有资源!---点击开通
回复

使用道具 举报

懒得打字嘛,点击右侧快捷回复 【右侧内容,后台自定义】
您需要登录后才可以回帖 登录 | 立即注册

本版积分规则

Archiver|手机版|小黑屋| 中国高清网 |网站地图

GMT+8, 2020-1-28 22:08 , Processed in 0.336114 second(s), 38 queries .

Powered by HDchina X3.4

Copyright 2017-2019©HDchina.All right reserved

返回顶部 联系我们