查看: 740|回复: 2

[10bit.HDR] 美国黑帮/犯罪帝国 American.Gangster.2007.THEATRiCAL.2160p.UHD.BluRay.X265.10bit.HDR10Plus.DTS-X.7.1-JustWatch 45.18GB

[复制链接]

 成长值: 6410

级别:资源管理组

注册时间
2017-10-20
最后登录
2020-8-7
听众
1
收听
0
主题
100960
蓝光币
179138 枚
贡献
21715 点
发表于 2020-1-1 14:10:52 | 显示全部楼层 |阅读模式
美国黑帮/犯罪帝国 American.Gangster.2007.THEATRiCAL.2160p.UHD.BluRay.X265.10bit.HDR10Plus.DTS-X.7.1-JustWatch 45.18GB-1.png

译  名 美国黑帮 / 犯罪帝国 / 美河山匪
片  名 American Gangster
年  代 2007
产  地 美国
类  别 剧情 / 犯罪
语  言 英语
上映日期 2007-11-02(美国)
IMDb评分  7.8/10 from 371827 users
IMDb链接  https://www.imdb.com/title/tt0765429
豆瓣评分 7.9/10 from 37813 users
豆瓣链接 https://movie.douban.com/subject/1578503/
片  长 157 分钟
导  演 Ridley Scott
编  剧 Steven Zaillian / Mark Jacobson
主  演 丹泽尔·华盛顿 Denzel Washington
       罗素·克劳 Russell Crowe
       切瓦特·埃加福特 Chiwetel Ejiofor
       乔什·布洛林 Josh Brolin
       里玛莉·娜妲 Lymari Nadal
       泰德·拉文 Ted Levine
       罗杰·格午埃文·史姑娘 Roger Guenveur Smith
       约翰·浩克斯 John Hawkes
       RZA
       尤尔·瓦斯克斯 Yul Vazquez
       Malcolm Goodwin
       露比·迪 Ruby Dee
       Ruben Santiago-Hudson
       卡拉·古奇诺 Carla Gugino
       Skyler Fortgang


标  签 黑帮 | 美国 | 犯罪 | DenzelWashington | 美国黑帮 | 美国电影 | RussellCrowe | 2007

简  介  

  上世纪70年月,哈莱姆黑人区,弗兰克?卢卡斯(丹泽尔?华盛顿 饰)是黑帮老迈约翰逊的司机。约翰逊暴毙后,弗兰克充实操纵了这个来之不易的机遇,将地来天下的一切权利分派停止了重组,成功上位,接手大佬奇迹,掌控了毒品买卖大权。时代他远赴东南亚金三角走私高纯度海洛因,张罗自己的家属兄弟,集结了一帮为他卖力的手下,一股黑暗势力正在兴起。
  另一边,差人里奇?罗伯茨(卢塞尔?克劳 饰)家庭破裂,与支流社会格格不入,成天以一副肮脏鬼样子留连于陌头。他渐渐发觉出毒品圈内的如火如荼,,并展开了奥秘观察。
  随着观察的深入,罗伯茨和卢卡斯之间的间隔越来越短,两个气质附近,惺惺相惜的汉子,不成避免地停止正面临决……

获奖情况  

  第80届奥斯卡金像奖(2008)
  最好女配角(提名) 露比·迪
  最好艺术指导(提名) 阿瑟·马克斯 / Beth A. Rubino

  第65届金球奖(2008)
  电影类 最好剧情片(提名)
  电影类 最好导演(提名) 雷德利·斯科特
  电影类 剧情片最好男配角(提名) 丹泽尔·华盛顿

  第61届英国电影学院奖(2008)
  电影奖 最好影片(提名) 雷德利·斯科特 / 布莱恩·格雷泽
  电影奖 最好原创剧本(提名) 斯蒂文·泽里安
  电影奖 最好摄影(提名) 哈里斯·萨维德斯
  电影奖 最好剪辑(提名) 彼得罗·斯卡利亚
  电影奖 最好原创音乐(提名) 马克·斯特雷滕菲尔德

  第17届MTV电影奖(2008)
  MTV电影奖 最好男演员(提名) 丹泽尔·华盛顿
  MTV电影奖 最好反派(提名) 丹泽尔·华盛顿
  1. Video
  2. ID                                       : 1
  3. Format                                   : HEVC
  4. Format/Info                              : High Efficiency Video Coding
  5. Format profile                           : Main High@L4@High
  6. HDR format                               : SMPTE ST 2094 App 4, Version 1, HDR10+ Profile B compatible
  7. Codec ID                                 : V_MPEGH/ISO/HEVC
  8. Duration                                 : 2 h 36 min
  9. Bit rate                                 : 35.0 Mb/s
  10. Width                                    : 3 840 pixels
  11. Height                                   : 2 160 pixels
  12. Display aspect ratio                     : 16:9
  13. Frame rate mode                          : Constant
  14. Frame rate                               : 23.976 (24000/1001) FPS
  15. Color space                              : YUV
  16. Chroma subsampling                       : 4:2:0 (Type 2)
  17. Bit depth                                : 10 bits
  18. Bits/(Pixel*Frame)                       : 0.176
  19. Stream size                              : 38.4 GiB (86%)
  20. Writing library                          : x265 3.19c5c9cef2a86:[Windows][MSVC 1900][64 bit] 10bit
  21. Encoding settings                        : cpuid=1111039 / frame-threads=6 / numa-pools=16,16 / wpp / no-pmode / no-pme / no-psnr / no-ssim / log-level=2 / input-csp=1 / input-res=3840x2160 / interlace=0 / total-frames=225665 / level-idc=51 / high-tier=1 / uhd-bd=0 / ref=4 / no-allow-non-conformance / repeat-headers / annexb / aud / hrd / info / hash=0 / no-temporal-layers / no-open-gop / min-keyint=24 / keyint=240 / gop-lookahead=0 / bframes=4 / b-adapt=2 / b-pyramid / bframe-bias=0 / rc-lookahead=25 / lookahead-slices=4 / scenecut=40 / radl=0 / no-splice / no-intra-refresh / ctu=64 / min-cu-size=8 / rect / no-amp / max-tu-size=32 / tu-inter-depth=1 / tu-intra-depth=1 / limit-tu=0 / rdoq-level=2 / dynamic-rd=0.00 / no-ssim-rd / signhide / no-tskip / nr-intra=0 / nr-inter=0 / no-constrained-intra / no-strong-intra-smoothing / max-merge=3 / limit-refs=3 / limit-modes / me=3 / subme=3 / merange=57 / temporal-mvp / weightp / no-weightb / no-analyze-src-pics / deblock=-3:-3 / no-sao / no-sao-non-deblock / rd=4 / no-early-skip / rskip / no-fast-intra / no-tskip-fast / no-cu-lossless / no-b-intra / no-splitrd-skip / rdpenalty=0 / psy-rd=2.00 / psy-rdoq=1.00 / no-rd-refine / no-lossless / cbqpoffs=0 / crqpoffs=0 / rc=crf / crf=21.0 / qcomp=0.60 / qpstep=4 / stats-write=0 / stats-read=0 / vbv-maxrate=160000 / vbv-bufsize=160000 / vbv-init=0.9 / crf-max=0.0 / crf-min=0.0 / ipratio=1.40 / pbratio=1.30 / aq-mode=2 / aq-strength=1.00 / cutree / zone-count=0 / no-strict-cbr / qg-size=32 / no-rc-grain / qpmax=69 / qpmin=0 / no-const-vbv / sar=1 / overscan=0 / videoformat=5 / range=0 / colorprim=9 / transfer=16 / colormatrix=9 / chromaloc=1 / chromaloc-top=2 / chromaloc-bottom=2 / display-window=0 / master-display=G(13250,34500)B(7500,3000)R(34000,16000)WP(15635,16450)L(10000000,50)cll=1179,501 / min-luma=0 / max-luma=1023 / log2-max-poc-lsb=8 / vui-timing-info / vui-hrd-info / slices=1 / no-opt-qp-pps / no-opt-ref-list-length-pps / no-multi-pass-opt-rps / scenecut-bias=0.05 / no-opt-cu-delta-qp / no-aq-motion / hdr / hdr-opt / dhdr10-opt / no-idr-recovery-sei / analysis-reuse-level=5 / scale-factor=0 / refine-intra=0 / refine-inter=0 / refine-mv=0 / refine-ctu-distortion=0 / no-limit-sao / ctu-info=0 / no-lowpass-dct / refine-analysis-type=0 / copy-pic=1 / max-ausize-factor=1.0 / no-dynamic-refine / no-single-sei / no-hevc-aq / no-svt / no-field / qp-adaptation-range=1.00
  22. Default                                  : Yes
  23. Forced                                   : No
  24. Color range                              : Limited
  25. Color primaries                          : BT.2020
  26. Transfer characteristics                 : PQ
  27. Matrix coefficients                      : BT.2020 non-constant
  28. Mastering display color primaries        : Display P3
  29. Mastering display luminance              : min: 0.0050 cd/m2, max: 1000 cd/m2
  30. Maximum Content Light Level              : 1179 cd/m2
  31. Maximum Frame-Average Light Level        : 501 cd/m2

  32. Audio
  33. ID                                       : 2
  34. Format                                   : DTS XLL X
  35. Format/Info                              : Digital Theater Systems
  36. Commercial name                          : DTS-HD Master Audio
  37. Codec ID                                 : A_DTS
  38. Duration                                 : 2 h 36 min
  39. Bit rate mode                            : Variable
  40. Bit rate                                 : 5 863 kb/s
  41. Channel(s)                               : 8 channels
  42. Channel(s)_Original                      : Object Based
  43. Channel layout                           : Object Based
  44. Sampling rate                            : 48.0 kHz
  45. Frame rate                               : 93.746 FPS (512 SPF)
  46. Bit depth                                : 24 bits
  47. Stream size                              : 6.42 GiB (14%)
  48. Language                                 : English
  49. Default                                  : No
  50. Forced                                   : No

  51. Text #1
  52. ID                                       : 3
  53. Format                                   : PGS
  54. Muxing mode                              : zlib
  55. Codec ID                                 : S_HDMV/PGS
  56. Codec ID/Info                            : Picture based subtitle format used on BDs/HD-DVDs
  57. Duration                                 : 2 h 27 min
  58. Bit rate                                 : 47.5 kb/s
  59. Count of elements                        : 4424
  60. Stream size                              : 50.1 MiB (0%)
  61. Language                                 : English
  62. Default                                  : No
  63. Forced                                   : No

  64. Text #2
  65. ID                                       : 4
  66. Format                                   : PGS
  67. Muxing mode                              : zlib
  68. Codec ID                                 : S_HDMV/PGS
  69. Codec ID/Info                            : Picture based subtitle format used on BDs/HD-DVDs
  70. Duration                                 : 2 h 31 min
  71. Bit rate                                 : 68.1 kb/s
  72. Count of elements                        : 4760
  73. Stream size                              : 74.0 MiB (0%)
  74. Language                                 : English
  75. Default                                  : No
  76. Forced                                   : No

  77. Menu
  78. 00:00:00.000                             : :Kapitel 01
  79. 00:06:48.616                             : :Kapitel 02
  80. 00:14:07.263                             : :Kapitel 03
  81. 00:24:15.662                             : :Kapitel 04
  82. 00:30:52.767                             : :Kapitel 05
  83. 00:36:06.414                             : :Kapitel 06
  84. 00:42:21.705                             : :Kapitel 07
  85. 00:48:29.531                             : :Kapitel 08
  86. 00:54:06.993                             : :Kapitel 09
  87. 01:04:50.261                             : :Kapitel 10
  88. 01:09:29.456                             : :Kapitel 11
  89. 01:17:37.319                             : :Kapitel 12
  90. 01:25:58.236                             : :Kapitel 13
  91. 01:32:02.808                             : :Kapitel 14
  92. 01:40:46.582                             : :Kapitel 15
  93. 01:48:52.692                             : :Kapitel 16
  94. 01:56:54.215                             : :Kapitel 17
  95. 02:04:02.101                             : :Kapitel 18
  96. 02:15:46.179                             : :Kapitel 19
  97. 02:29:05.978                             : :Kapitel 20
复制代码

美国黑帮/犯罪帝国 American.Gangster.2007.THEATRiCAL.2160p.UHD.BluRay.X265.10bit.HDR10Plus.DTS-X.7.1-JustWatch 45.18GB-2.png 美国黑帮/犯罪帝国 American.Gangster.2007.THEATRiCAL.2160p.UHD.BluRay.X265.10bit.HDR10Plus.DTS-X.7.1-JustWatch 45.18GB-3.png 美国黑帮/犯罪帝国 American.Gangster.2007.THEATRiCAL.2160p.UHD.BluRay.X265.10bit.HDR10Plus.DTS-X.7.1-JustWatch 45.18GB-4.png







本帖隐藏的下载地址需要VIP会员才可阅读,您需要升级才可阅读,点击这里升级VIP
回复

使用道具 举报

级别:领衔主演 Lv.6

注册时间
2018-2-26
最后登录
2020-8-6
听众
19
收听
0
主题
0
蓝光币
290 枚
贡献
0 点
发表于 2020-1-14 09:23:47 | 显示全部楼层

我看不错噢 谢谢楼主!中国高清电影网越来越好!
回复

使用道具 举报

级别:群众演员 Lv.3

注册时间
2020-3-12
最后登录
2020-6-29
听众
2
收听
0
主题
0
蓝光币
171 枚
贡献
0 点
发表于 2020-3-20 09:48:48 | 显示全部楼层
楼主发贴辛苦了,谢谢楼主分享!我觉得中国高清电影网是注册对了!
回复

使用道具 举报

懒得打字嘛,点击右侧快捷回复 【右侧内容,后台自定义】
您需要登录后才可以回帖 登录 | 立即注册

本版积分规则

Archiver|手机版|小黑屋| 中国高清网 ( ICP备17007870号-2 ) |网站地图 

GMT+8, 2020-8-7 12:13 , Processed in 0.178020 second(s), 40 queries .

Powered by HDchina X3.4

Copyright 2017-2019©HDchina.All right reserved

返回顶部 联系我们