查看: 409|回复: 4

[动画片] 千年女优 Millennium.Actress.2001.JAPANESE.1080p.BluRay.REMUX.AVC.DTS-HD.MA.5.1-FGT 24.71GB

[复制链接]

 成长值: 5940

级别:资源管理组

注册时间
2017-10-20
最后登录
2020-7-2
听众
1
收听
0
主题
97224
蓝光币
165705 枚
贡献
21603 点
发表于 2019-12-23 22:36:44 | 显示全部楼层 |阅读模式
千年女优 Millennium.Actress.2001.JAPANESE.1080p.BluRay.REMUX.AVC.DTS-HD.MA.5.1-FGT 24.71GB-1.png

译  名 千年女优 / Millennium Actress
片  名 千年女優
年  代 2001
产  地 日本
类  别 剧情 / 恋爱 / 动画
语  言 日语
上映日期 2001-07-28(加拿大奇异电影节) / 2002-09-14(日本)
IMDb评分  7.9/10 from 20635 users
IMDb链接  https://www.imdb.com/title/tt0291350
豆瓣评分 8.7/10 from 133350 users
豆瓣链接 https://movie.douban.com/subject/1307394/
片  长 87 分钟
导  演 今敏 Satoshi Kon
编  剧 今敏 Satoshi Kon / 村井贞之 Sadayuki Murai
主  演 庄司美代子 Miyoko Sh?ji
       小山茉美 Mami Koyama
       折笠富美子 Fumiko Orikasa
       饭塚昭三 Sh?z? ?zuka
       小野坂昌也 Masaya Onosaka
       津田匠子 Shouko Tsuda
       铃置洋孝 Hirotaka Suzuoki
       京田尚子 Hisako Ky?da
       德丸完 Kan Tokumaru
       片冈富枝 Tomie Kataoka
       石森达幸 Takk? Ishimori
       佐藤政道 Masamichi Sat?
       小形满 Mitsuru Ogata
       麻生智久 Asou Tomohisa
       游佐浩二 Koji Yusa
       肥后诚 Makoto Higo
       坂口候一 Sakaguchi Kouichi
       志村知幸 Tomoyuki Shimura
       木村亚希子 Akiko Kimura
       佐伯志 Tomo Saeki
       野岛裕史 Hirofumi Nojima
       浅野琉璃 Asano Ruri
       大中宽子
       园部好德 Yoshinori Sonobe
       大黑优美子
       山寺宏一 K?ichi Yamadera
       津嘉山正种 Masane Tsukayama


标  签 今敏 | 动画 | 日本 | 日本动画 | 恋爱 | 千年女优 | 动漫 | 日本电影

简  介  

  60岁的立花源也和28岁的摄影师井田恭二不远千里奔走风尘上门去造访隐居了三十年的一代影星藤原千代子,为了给她拍摄平生自传的记载片。款款前来的千代子虽然已界75岁高龄,但仍然文雅美丽,左眼下标志性的小痣也仍然调皮。立花双手递上一把钥匙,千代子深受震动,称这把钥匙是开启一个 奥秘的关键,昔时她失慎丧失,本日竟还能再回手中。千代子的思绪飞到老远。
  1926年9月1日,藤原千代子呱呱坠地,水灵秀气的她16岁就被星探挖掘,但是直到遇上一个画家,她救他于浊世中,藏于自家仓库内,他赠她一把钥匙,说这是开启奥秘的关键,并许诺再与她重逢时带她去看北海道的雪。但是越日千代子下学归家时画家已经过于逃开追捕逃离远去。
  千代子自此进入电影圈,只由于画家最初说他会去满洲作战,而第一部电影许诺会去满洲取景。今后千代子的银幕生活拉开,拍摄了代表日本战国、幕府、大正及昭和等四个分歧期间的大时代恋爱故事。在每一个故事里,千代子都在奔驰,追随着自己的真爱。场景与她自己的故事糅合在一路,真假难分。立花和井田紧随厥后设身处地,时而酿成故事中人物。
  但是千代子丧失了钥匙,意气消沉的她嫁给了一向追求她的导演大泷。到后来她发现一切是一个经心布下的圈套,千代子认清究竟后决意继续找寻自己少女时代的所爱。

获奖情况  

  第31届动画安妮奖(2004)
  最好动画长片(提名)
  最好导演(提名) 今敏
  最好编剧(提名) 村井贞之 / 今敏
  最好配音(提名) 庄司美代子
  1. Video
  2. ID                                       : 1
  3. Format                                   : AVC
  4. Format/Info                              : Advanced Video Codec
  5. Format profile                           : High@L4
  6. Format settings                          : CABAC / 4 Ref Frames
  7. Format settings, CABAC                   : Yes
  8. Format settings, Reference frames        : 4 frames
  9. Codec ID                                 : V_MPEG4/ISO/AVC
  10. Duration                                 : 1 h 26 min
  11. Bit rate mode                            : Variable
  12. Bit rate                                 : 33.8 Mb/s
  13. Maximum bit rate                         : 35.0 Mb/s
  14. Width                                    : 1 920 pixels
  15. Height                                   : 1 080 pixels
  16. Display aspect ratio                     : 16:9
  17. Frame rate mode                          : Constant
  18. Frame rate                               : 24.000 FPS
  19. Color space                              : YUV
  20. Chroma subsampling                       : 4:2:0
  21. Bit depth                                : 8 bits
  22. Scan type                                : Progressive
  23. Bits/(Pixel*Frame)                       : 0.678
  24. Stream size                              : 20.4 GiB (82%)
  25. Title                                    : Millennium.Actress.2001.JAPANESE.1080p.BluRay.REMUX.AVC.DTS-HD.MA.5.1-FGT
  26. Language                                 : English
  27. Default                                  : No
  28. Forced                                   : No

  29. Audio #1
  30. ID                                       : 2
  31. Format                                   : DTS XLL
  32. Format/Info                              : Digital Theater Systems
  33. Commercial name                          : DTS-HD Master Audio
  34. Codec ID                                 : A_DTS
  35. Duration                                 : 1 h 26 min
  36. Bit rate mode                            : Variable
  37. Bit rate                                 : 3 780 kb/s
  38. Channel(s)                               : 6 channels
  39. Channel layout                           : C L R Ls Rs LFE
  40. Sampling rate                            : 48.0 kHz
  41. Frame rate                               : 93.750 FPS (512 SPF)
  42. Bit depth                                : 24 bits
  43. Compression mode                         : Lossless
  44. Stream size                              : 2.28 GiB (9%)
  45. Title                                    : Millennium.Actress.2001.JAPANESE.1080p.BluRay.REMUX.AVC.DTS-HD.MA.5.1-FGT
  46. Language                                 : Japanese
  47. Default                                  : Yes
  48. Forced                                   : No

  49. Audio #2
  50. ID                                       : 3
  51. Format                                   : DTS XLL
  52. Format/Info                              : Digital Theater Systems
  53. Commercial name                          : DTS-HD Master Audio
  54. Codec ID                                 : A_DTS
  55. Duration                                 : 1 h 26 min
  56. Bit rate mode                            : Variable
  57. Bit rate                                 : 3 393 kb/s
  58. Channel(s)                               : 6 channels
  59. Channel layout                           : C L R Ls Rs LFE
  60. Sampling rate                            : 48.0 kHz
  61. Frame rate                               : 93.750 FPS (512 SPF)
  62. Bit depth                                : 24 bits
  63. Compression mode                         : Lossless
  64. Stream size                              : 2.05 GiB (8%)
  65. Title                                    : Millennium.Actress.2001.JAPANESE.1080p.BluRay.REMUX.AVC.DTS-HD.MA.5.1-FGT
  66. Language                                 : English
  67. Default                                  : No
  68. Forced                                   : No

  69. Text #1
  70. ID                                       : 4
  71. Format                                   : PGS
  72. Muxing mode                              : zlib
  73. Codec ID                                 : S_HDMV/PGS
  74. Codec ID/Info                            : Picture based subtitle format used on BDs/HD-DVDs
  75. Duration                                 : 1 h 21 min
  76. Bit rate                                 : 30.9 kb/s
  77. Count of elements                        : 1510
  78. Stream size                              : 18.0 MiB (0%)
  79. Title                                    : English-PGS
  80. Language                                 : English
  81. Default                                  : Yes
  82. Forced                                   : No

  83. Text #2
  84. ID                                       : 5
  85. Format                                   : PGS
  86. Muxing mode                              : zlib
  87. Codec ID                                 : S_HDMV/PGS
  88. Codec ID/Info                            : Picture based subtitle format used on BDs/HD-DVDs
  89. Duration                                 : 1 h 21 min
  90. Bit rate                                 : 44.2 kb/s
  91. Count of elements                        : 2418
  92. Stream size                              : 25.8 MiB (0%)
  93. Title                                    : English-PGS
  94. Language                                 : English
  95. Default                                  : No
  96. Forced                                   : No

  97. Text #3
  98. ID                                       : 6
  99. Format                                   : PGS
  100. Muxing mode                              : zlib
  101. Codec ID                                 : S_HDMV/PGS
  102. Codec ID/Info                            : Picture based subtitle format used on BDs/HD-DVDs
  103. Duration                                 : 1 h 14 min
  104. Bit rate                                 : 448 b/s
  105. Count of elements                        : 20
  106. Stream size                              : 244 KiB (0%)
  107. Title                                    : English-PGS
  108. Language                                 : English
  109. Default                                  : No
  110. Forced                                   : No

  111. Menu
  112. 00:00:00.000                             : en:Chapter 01
  113. 00:05:36.375                             : en:Chapter 02
  114. 00:11:41.458                             : en:Chapter 03
  115. 00:17:14.250                             : en:Chapter 04
  116. 00:24:59.500                             : en:Chapter 05
  117. 00:32:25.166                             : en:Chapter 06
  118. 00:37:46.541                             : en:Chapter 07
  119. 00:44:14.708                             : en:Chapter 08
  120. 00:54:37.208                             : en:Chapter 09
  121. 01:03:39.791                             : en:Chapter 10
  122. 01:12:44.083                             : en:Chapter 11
  123. 01:19:08.625                             : en:Chapter 12
复制代码

千年女优 Millennium.Actress.2001.JAPANESE.1080p.BluRay.REMUX.AVC.DTS-HD.MA.5.1-FGT 24.71GB-2.png f530d6c50269c.png 千年女优 Millennium.Actress.2001.JAPANESE.1080p.BluRay.REMUX.AVC.DTS-HD.MA.5.1-FGT 24.71GB-4.png






本帖隐藏的下载地址需要VIP会员才可阅读,您需要升级才可阅读,点击这里升级VIP
回复

使用道具 举报

级别:荣升主角 Lv.5

注册时间
2019-11-25
最后登录
2020-7-2
听众
2
收听
0
主题
0
蓝光币
720 枚
贡献
0 点
发表于 2019-12-24 06:32:32 | 显示全部楼层

楼主,大恩不言谢了!中国高清电影网是最棒的!
回复

使用道具 举报

级别:普通观众 Lv.2

注册时间
2019-12-29
最后登录
2020-3-19
听众
2
收听
0
主题
0
蓝光币
0 枚
贡献
0 点
发表于 2019-12-29 18:04:41 | 显示全部楼层

这东西我收了!谢谢楼主!中国高清电影网真好!
回复

使用道具 举报

 成长值: 2710

级别:尊贵的会员

注册时间
2020-1-22
最后登录
2020-6-30
听众
3
收听
0
主题
0
蓝光币
384 枚
贡献
0 点
发表于 2020-1-22 22:59:05 | 显示全部楼层

既然你诚信诚意的推荐了,那我就勉为其难的看看吧!中国高清电影网不走平凡路。
回复

使用道具 举报

已抛锚 成长值: 300

级别:初级观众 Lv.1

注册时间
2020-4-10
最后登录
2020-6-30
听众
2
收听
0
主题
0
蓝光币
1 枚
贡献
0 点
发表于 前天 12:16 | 显示全部楼层

楼主太厉害了!楼主,电影应该很好看我觉得中国高清电影网真是个好地方!
回复

使用道具 举报

懒得打字嘛,点击右侧快捷回复 【右侧内容,后台自定义】
您需要登录后才可以回帖 登录 | 立即注册

本版积分规则

Archiver|手机版|小黑屋| 中国高清网 ( ICP备17007870号-2 ) |网站地图 

GMT+8, 2020-7-2 21:20 , Processed in 0.172154 second(s), 38 queries .

Powered by HDchina X3.4

Copyright 2017-2019©HDchina.All right reserved

返回顶部 联系我们