查看: 566|回复: 10

[科幻片] 星际探索/星际任务 Ad.Astra.2019.1080p.BluRay.REMUX.AVC.DTS-HD.MA.TrueHD.7.1.Atmos-FGT 32.04GB

[复制链接]

 成长值: 6410

级别:资源管理组

注册时间
2017-10-20
最后登录
2020-8-7
听众
1
收听
0
主题
100960
蓝光币
179188 枚
贡献
21715 点
发表于 2019-12-11 12:09:14 | 显示全部楼层 |阅读模式
星际摸索/星际使命 Ad.Astra.2019.1080p.BluRay.REMUX.AVC.DTS-HD.MA.TrueHD.7.1.Atmos-FGT 32.04GB-1.png

译  名 星际摸索 / 星际使命(港) / 星际探险 / 星际救济(台)
片  名 Ad Astra
年  代 2019
产  地 美国
类  别 科幻 / 悬疑 / 冒险 / 灾难
语  言 英语
上映日期 2019-08-29(威尼斯电影节) / 2019-09-20(美国) / 2019-12-06(中国大陆)
IMDb评分  7.0/10 from 68398 users
IMDb链接  https://www.imdb.com/title/tt2935510
豆瓣评分 6.8/10 from 4215 users
豆瓣链接 https://movie.douban.com/subject/24716039/
片  长 124分钟
导  演 詹姆士·格雷 James Gray
编  剧 詹姆士·格雷 James Gray / 伊森·格罗斯 Ethan Gross
主  演 布拉德·皮特 Brad Pitt
       汤米·李·琼斯 Tommy Lee Jones
       鲁丝·内伽 Ruth Negga
       唐纳德·萨瑟兰 Donald Sutherland
       丽芙·泰勒 Liv Tyler
       肖恩·布莱克默 Sean Blakemore
       约翰·芬 John Finn
       杰米·肯尼迪 Jamie Kennedy
       格雷格·布瑞克 Greg Bryk
       吉米·希尔兹 Kimmy Shields
       丽莎·盖伊·汉密尔顿 Lisa Gay Hamilton
       劳恩·迪恩 Loren Dean
       约翰·奥提兹 John Ortiz
       金伯莉·伊丽丝 Kimberly Elise
       丹尼尔·萨乌利 Daniel Sauli
       安妮·麦克代尼尔斯 Anne McDaniels
       艾莉森·瑞德 Alyson Reed
       唐尼·科沙瓦茨 Donnie Keshawarz
       马洛里露 Mallory Low
       希拉·M·洛克哈特 Sheila M. Lockhart


标  签 科幻 | 太空 | 宇宙 | 美国 | 2019 | 冒险 | 惊悚 | 星际

简  介  

  地球上接连出现奥秘怪象,科学家发现某种失控的反物资反应正在威胁全部太阳系,人类保存极端堪忧……地球生死攸关之际,天赋航天工程师罗伊(布拉德·皮特 饰)被派往外太空,试图揭开谜团拯救人类。这是一场横跨地球、月球、火星、海王星,穿越全部太阳系的硬核冒险,一路危机重重险象环生,罗伊直面爆炸、陨石、月球飙车枪战、奥秘生物等意想不到的考验,还找回了失联20年的父亲!昔时罗伊的父亲(汤米·李·琼斯 饰)分开地球探访外星聪明生物,成果使命失利,消失在茫茫宇宙当中。现在父子重逢,罗伊在太空深处发现了不为人知的奥秘,渐渐触达一切事务的终极真相……

获奖情况  

  第76届威尼斯电影节(2019)
  主比赛单元 金狮奖 (提名) 詹姆斯·格雷
  1. Video
  2. ID                                       : 1
  3. Format                                   : AVC
  4. Format/Info                              : Advanced Video Codec
  5. Format profile                           : High@L4
  6. Format settings                          : CABAC / 2 Ref Frames
  7. Format settings, CABAC                   : Yes
  8. Format settings, Reference frames        : 2 frames
  9. Codec ID                                 : V_MPEG4/ISO/AVC
  10. Duration                                 : 2 h 3 min
  11. Bit rate mode                            : Variable
  12. Bit rate                                 : 26.9 Mb/s
  13. Width                                    : 1 920 pixels
  14. Height                                   : 1 080 pixels
  15. Display aspect ratio                     : 16:9
  16. Frame rate mode                          : Constant
  17. Frame rate                               : 23.976 (24000/1001) FPS
  18. Color space                              : YUV
  19. Chroma subsampling                       : 4:2:0
  20. Bit depth                                : 8 bits
  21. Scan type                                : Progressive
  22. Bits/(Pixel*Frame)                       : 0.541
  23. Stream size                              : 23.1 GiB (72%)
  24. Title                                    : Ad.Astra.2019.1080p.BluRay.REMUX.AVC.DTS-HD.MA.TrueHD.7.1.Atmos-FGT
  25. Language                                 : English
  26. Default                                  : No
  27. Forced                                   : No

  28. Audio #1
  29. ID                                       : 2
  30. Format                                   : MLP FBA 16-ch
  31. Format/Info                              : Meridian Lossless Packing FBA with 16-channel presentation
  32. Commercial name                          : Dolby TrueHD with Dolby Atmos
  33. Codec ID                                 : A_TRUEHD
  34. Duration                                 : 2 h 3 min
  35. Bit rate mode                            : Variable
  36. Bit rate                                 : 3 388 kb/s
  37. Maximum bit rate                         : 6 165 kb/s
  38. Channel(s)                               : 8 channels
  39. Channel layout                           : L R C LFE Ls Rs Lb Rb
  40. Sampling rate                            : 48.0 kHz
  41. Frame rate                               : 1 200.000 FPS (40 SPF)
  42. Compression mode                         : Lossless
  43. Stream size                              : 2.91 GiB (9%)
  44. Title                                    : Ad.Astra.2019.1080p.BluRay.REMUX.AVC.DTS-HD.MA.TrueHD.7.1.Atmos-FGT
  45. Language                                 : English
  46. Default                                  : Yes
  47. Forced                                   : No
  48. Number of dynamic objects                : 13
  49. Bed channel count                        : 1 channel
  50. Bed channel configuration                : LFE

  51. Audio #2
  52. ID                                       : 3
  53. Format                                   : DTS XLL
  54. Format/Info                              : Digital Theater Systems
  55. Commercial name                          : DTS-HD Master Audio
  56. Codec ID                                 : A_DTS
  57. Duration                                 : 2 h 3 min
  58. Bit rate mode                            : Variable
  59. Bit rate                                 : 4 643 kb/s
  60. Channel(s)                               : 8 channels
  61. Channel layout                           : C L R LFE Lb Rb Lss Rss
  62. Sampling rate                            : 48.0 kHz
  63. Frame rate                               : 93.750 FPS (512 SPF)
  64. Bit depth                                : 24 bits
  65. Compression mode                         : Lossless
  66. Stream size                              : 3.99 GiB (12%)
  67. Title                                    : Ad.Astra.2019.1080p.BluRay.REMUX.AVC.DTS-HD.MA.TrueHD.7.1.Atmos-FGT
  68. Language                                 : English
  69. Default                                  : No
  70. Forced                                   : No

  71. Audio #3
  72. ID                                       : 4
  73. Format                                   : AC-3
  74. Format/Info                              : Audio Coding 3
  75. Commercial name                          : Dolby Digital
  76. Codec ID                                 : A_AC3
  77. Duration                                 : 2 h 3 min
  78. Bit rate mode                            : Constant
  79. Bit rate                                 : 640 kb/s
  80. Channel(s)                               : 6 channels
  81. Channel layout                           : L R C LFE Ls Rs
  82. Sampling rate                            : 48.0 kHz
  83. Frame rate                               : 31.250 FPS (1536 SPF)
  84. Bit depth                                : 16 bits
  85. Compression mode                         : Lossy
  86. Stream size                              : 563 MiB (2%)
  87. Title                                    : Ad.Astra.2019.1080p.BluRay.REMUX.AVC.DTS-HD.MA.TrueHD.7.1.Atmos-FGT
  88. Language                                 : English
  89. Service kind                             : Complete Main
  90. Default                                  : No
  91. Forced                                   : No

  92. Audio #4
  93. ID                                       : 5
  94. Format                                   : AC-3
  95. Format/Info                              : Audio Coding 3
  96. Commercial name                          : Dolby Digital
  97. Codec ID                                 : A_AC3
  98. Duration                                 : 2 h 3 min
  99. Bit rate mode                            : Constant
  100. Bit rate                                 : 448 kb/s
  101. Channel(s)                               : 6 channels
  102. Channel layout                           : L R C LFE Ls Rs
  103. Sampling rate                            : 48.0 kHz
  104. Frame rate                               : 31.250 FPS (1536 SPF)
  105. Bit depth                                : 16 bits
  106. Compression mode                         : Lossy
  107. Stream size                              : 394 MiB (1%)
  108. Title                                    : Ad.Astra.2019.1080p.BluRay.REMUX.AVC.DTS-HD.MA.TrueHD.7.1.Atmos-FGT
  109. Language                                 : English
  110. Service kind                             : Complete Main
  111. Default                                  : No
  112. Forced                                   : No

  113. Audio #5
  114. ID                                       : 6
  115. Format                                   : AC-3
  116. Format/Info                              : Audio Coding 3
  117. Commercial name                          : Dolby Digital
  118. Codec ID                                 : A_AC3
  119. Duration                                 : 2 h 3 min
  120. Bit rate mode                            : Constant
  121. Bit rate                                 : 448 kb/s
  122. Channel(s)                               : 6 channels
  123. Channel layout                           : L R C LFE Ls Rs
  124. Sampling rate                            : 48.0 kHz
  125. Frame rate                               : 31.250 FPS (1536 SPF)
  126. Bit depth                                : 16 bits
  127. Compression mode                         : Lossy
  128. Stream size                              : 394 MiB (1%)
  129. Title                                    : Ad.Astra.2019.1080p.BluRay.REMUX.AVC.DTS-HD.MA.TrueHD.7.1.Atmos-FGT
  130. Language                                 : Spanish
  131. Service kind                             : Complete Main
  132. Default                                  : No
  133. Forced                                   : No

  134. Audio #6
  135. ID                                       : 7
  136. Format                                   : AC-3
  137. Format/Info                              : Audio Coding 3
  138. Commercial name                          : Dolby Digital
  139. Codec ID                                 : A_AC3
  140. Duration                                 : 2 h 3 min
  141. Bit rate mode                            : Constant
  142. Bit rate                                 : 448 kb/s
  143. Channel(s)                               : 6 channels
  144. Channel layout                           : L R C LFE Ls Rs
  145. Sampling rate                            : 48.0 kHz
  146. Frame rate                               : 31.250 FPS (1536 SPF)
  147. Bit depth                                : 16 bits
  148. Compression mode                         : Lossy
  149. Stream size                              : 394 MiB (1%)
  150. Title                                    : Ad.Astra.2019.1080p.BluRay.REMUX.AVC.DTS-HD.MA.TrueHD.7.1.Atmos-FGT
  151. Language                                 : French
  152. Service kind                             : Complete Main
  153. Default                                  : No
  154. Forced                                   : No

  155. Audio #7
  156. ID                                       : 8
  157. Format                                   : AC-3
  158. Format/Info                              : Audio Coding 3
  159. Commercial name                          : Dolby Digital
  160. Codec ID                                 : A_AC3
  161. Duration                                 : 2 h 3 min
  162. Bit rate mode                            : Constant
  163. Bit rate                                 : 224 kb/s
  164. Channel(s)                               : 2 channels
  165. Channel layout                           : L R
  166. Sampling rate                            : 48.0 kHz
  167. Frame rate                               : 31.250 FPS (1536 SPF)
  168. Bit depth                                : 16 bits
  169. Compression mode                         : Lossy
  170. Stream size                              : 197 MiB (1%)
  171. Title                                    : Ad.Astra.2019.1080p.BluRay.REMUX.AVC.DTS-HD.MA.TrueHD.7.1.Atmos-FGT
  172. Language                                 : English
  173. Service kind                             : Complete Main
  174. Default                                  : No
  175. Forced                                   : No

  176. Text #1
  177. ID                                       : 9
  178. Format                                   : UTF-8
  179. Codec ID                                 : S_TEXT/UTF8
  180. Codec ID/Info                            : UTF-8 Plain Text
  181. Duration                                 : 1 h 50 min
  182. Bit rate                                 : 50 b/s
  183. Count of elements                        : 1389
  184. Stream size                              : 41.1 KiB (0%)
  185. Title                                    : English-SRT
  186. Language                                 : English
  187. Default                                  : Yes
  188. Forced                                   : No

  189. Text #2
  190. ID                                       : 10
  191. Format                                   : PGS
  192. Muxing mode                              : zlib
  193. Codec ID                                 : S_HDMV/PGS
  194. Codec ID/Info                            : Picture based subtitle format used on BDs/HD-DVDs
  195. Duration                                 : 1 h 50 min
  196. Bit rate                                 : 36.0 kb/s
  197. Count of elements                        : 2786
  198. Stream size                              : 28.5 MiB (0%)
  199. Title                                    : English-PGS
  200. Language                                 : English
  201. Default                                  : No
  202. Forced                                   : No

  203. Text #3
  204. ID                                       : 11
  205. Format                                   : PGS
  206. Muxing mode                              : zlib
  207. Codec ID                                 : S_HDMV/PGS
  208. Codec ID/Info                            : Picture based subtitle format used on BDs/HD-DVDs
  209. Duration                                 : 2 h 2 min
  210. Bit rate                                 : 25.2 kb/s
  211. Count of elements                        : 2106
  212. Stream size                              : 22.0 MiB (0%)
  213. Title                                    : Spanish-PGS
  214. Language                                 : Spanish
  215. Default                                  : No
  216. Forced                                   : No

  217. Text #4
  218. ID                                       : 12
  219. Format                                   : PGS
  220. Muxing mode                              : zlib
  221. Codec ID                                 : S_HDMV/PGS
  222. Codec ID/Info                            : Picture based subtitle format used on BDs/HD-DVDs
  223. Duration                                 : 2 h 2 min
  224. Bit rate                                 : 27.7 kb/s
  225. Count of elements                        : 2254
  226. Stream size                              : 24.2 MiB (0%)
  227. Title                                    : French-PGS
  228. Language                                 : French
  229. Default                                  : No
  230. Forced                                   : No

  231. Text #5
  232. ID                                       : 13
  233. Format                                   : PGS
  234. Muxing mode                              : zlib
  235. Codec ID                                 : S_HDMV/PGS
  236. Codec ID/Info                            : Picture based subtitle format used on BDs/HD-DVDs
  237. Duration                                 : 2 h 2 min
  238. Bit rate                                 : 1 352 b/s
  239. Count of elements                        : 102
  240. Stream size                              : 1.18 MiB (0%)
  241. Title                                    : French-FORCED-PGS
  242. Language                                 : French
  243. Default                                  : No
  244. Forced                                   : No

  245. Text #6
  246. ID                                       : 14
  247. Format                                   : PGS
  248. Muxing mode                              : zlib
  249. Codec ID                                 : S_HDMV/PGS
  250. Codec ID/Info                            : Picture based subtitle format used on BDs/HD-DVDs
  251. Duration                                 : 2 h 2 min
  252. Bit rate                                 : 1 352 b/s
  253. Count of elements                        : 102
  254. Stream size                              : 1.18 MiB (0%)
  255. Title                                    : French-PGS
  256. Language                                 : French
  257. Default                                  : No
  258. Forced                                   : No

  259. Text #7
  260. ID                                       : 15
  261. Format                                   : PGS
  262. Muxing mode                              : zlib
  263. Codec ID                                 : S_HDMV/PGS
  264. Codec ID/Info                            : Picture based subtitle format used on BDs/HD-DVDs
  265. Duration                                 : 1 h 53 min
  266. Bit rate                                 : 72.4 kb/s
  267. Count of elements                        : 3914
  268. Stream size                              : 58.6 MiB (0%)
  269. Title                                    : English-COMMENTARY-PGS
  270. Language                                 : English
  271. Default                                  : No
  272. Forced                                   : No

  273. Text #8
  274. ID                                       : 16
  275. Format                                   : PGS
  276. Muxing mode                              : zlib
  277. Codec ID                                 : S_HDMV/PGS
  278. Codec ID/Info                            : Picture based subtitle format used on BDs/HD-DVDs
  279. Duration                                 : 2 h 2 min
  280. Bit rate                                 : 64.2 kb/s
  281. Count of elements                        : 3896
  282. Stream size                              : 56.4 MiB (0%)
  283. Title                                    : Spanish-COMMENTARY-PGS
  284. Language                                 : Spanish
  285. Default                                  : No
  286. Forced                                   : No

  287. Text #9
  288. ID                                       : 17
  289. Format                                   : PGS
  290. Muxing mode                              : zlib
  291. Codec ID                                 : S_HDMV/PGS
  292. Codec ID/Info                            : Picture based subtitle format used on BDs/HD-DVDs
  293. Duration                                 : 2 h 2 min
  294. Bit rate                                 : 62.7 kb/s
  295. Count of elements                        : 3896
  296. Stream size                              : 55.1 MiB (0%)
  297. Title                                    : French-COMMENTARY-PGS
  298. Language                                 : French
  299. Default                                  : No
  300. Forced                                   : No

  301. Text #10
  302. ID                                       : 18
  303. Format                                   : PGS
  304. Muxing mode                              : zlib
  305. Codec ID                                 : S_HDMV/PGS
  306. Codec ID/Info                            : Picture based subtitle format used on BDs/HD-DVDs
  307. Duration                                 : 2 h 1 min
  308. Bit rate                                 : 438 b/s
  309. Count of elements                        : 38
  310. Stream size                              : 392 KiB (0%)
  311. Title                                    : Spanish-FORCED-PGS
  312. Language                                 : Spanish
  313. Default                                  : No
  314. Forced                                   : No

  315. Text #11
  316. ID                                       : 19
  317. Format                                   : PGS
  318. Muxing mode                              : zlib
  319. Codec ID                                 : S_HDMV/PGS
  320. Codec ID/Info                            : Picture based subtitle format used on BDs/HD-DVDs
  321. Duration                                 : 2 h 1 min
  322. Bit rate                                 : 438 b/s
  323. Count of elements                        : 38
  324. Stream size                              : 392 KiB (0%)
  325. Title                                    : Spanish-FORCED-PGS
  326. Language                                 : Spanish
  327. Default                                  : No
  328. Forced                                   : No

  329. Menu
  330. 00:00:00.000                             : en:Chapter 01
  331. 00:04:22.553                             : en:Chapter 02
  332. 00:08:48.861                             : en:Chapter 03
  333. 00:16:25.776                             : en:Chapter 04
  334. 00:22:33.810                             : en:Chapter 05
  335. 00:30:08.389                             : en:Chapter 06
  336. 00:35:08.272                             : en:Chapter 07
  337. 00:40:33.055                             : en:Chapter 08
  338. 00:44:45.391                             : en:Chapter 09
  339. 00:48:56.683                             : en:Chapter 10
  340. 00:53:51.811                             : en:Chapter 11
  341. 00:56:43.441                             : en:Chapter 12
  342. 01:01:31.896                             : en:Chapter 13
  343. 01:07:23.748                             : en:Chapter 14
  344. 01:12:12.411                             : en:Chapter 15
  345. 01:16:59.114                             : en:Chapter 16
  346. 01:21:34.848                             : en:Chapter 17
  347. 01:24:43.078                             : en:Chapter 18
  348. 01:31:16.554                             : en:Chapter 19
  349. 01:36:27.031                             : en:Chapter 20
  350. 01:40:59.595                             : en:Chapter 21
  351. 01:46:26.588                             : en:Chapter 22
  352. 01:50:00.051                             : en:Chapter 23
  353. 01:53:17.791                             : en:Chapter 24
复制代码

星际摸索/星际使命 Ad.Astra.2019.1080p.BluRay.REMUX.AVC.DTS-HD.MA.TrueHD.7.1.Atmos-FGT 32.04GB-2.png 星际摸索/星际使命 Ad.Astra.2019.1080p.BluRay.REMUX.AVC.DTS-HD.MA.TrueHD.7.1.Atmos-FGT 32.04GB-3.png 星际摸索/星际使命 Ad.Astra.2019.1080p.BluRay.REMUX.AVC.DTS-HD.MA.TrueHD.7.1.Atmos-FGT 32.04GB-4.png







回复

使用道具 举报

级别:普通观众 Lv.2

注册时间
2019-12-5
最后登录
2020-6-16
听众
3
收听
0
主题
0
蓝光币
1 枚
贡献
0 点
QQ
发表于 2019-12-13 11:43:02 | 显示全部楼层
强烈支持
回复

使用道具 举报

级别:普通观众 Lv.2

注册时间
2019-12-5
最后登录
2020-6-16
听众
3
收听
0
主题
0
蓝光币
1 枚
贡献
0 点
QQ
发表于 2019-12-13 11:44:22 | 显示全部楼层

强烈支持
回复

使用道具 举报

级别:普通观众 Lv.2

注册时间
2019-12-5
最后登录
2020-6-16
听众
3
收听
0
主题
0
蓝光币
1 枚
贡献
0 点
QQ
发表于 2019-12-13 11:45:08 | 显示全部楼层
强烈支持一下
回复

使用道具 举报

 成长值: 3560

级别:尊贵的会员

注册时间
2019-12-17
最后登录
2020-7-1
听众
2
收听
0
主题
0
蓝光币
32 枚
贡献
0 点
QQ
发表于 2019-12-18 09:42:00 | 显示全部楼层
这个字幕怎么弄?下来了看了下没有字幕额
回复

使用道具 举报

级别:功成名就 Lv.9

注册时间
2019-4-24
最后登录
2020-8-6
听众
16
收听
0
主题
0
蓝光币
575 枚
贡献
0 点
发表于 2019-12-18 14:23:36 | 显示全部楼层
楼主发贴辛苦了,谢谢楼主分享!我觉得中国高清电影网是注册对了!
回复

使用道具 举报

级别:初级观众 Lv.1

注册时间
2019-12-24
最后登录
2020-1-15
听众
2
收听
0
主题
0
蓝光币
4 枚
贡献
0 点
发表于 2019-12-24 14:25:25 | 显示全部楼层
值得收藏!!!!
回复

使用道具 举报

级别:群众演员 Lv.3

注册时间
2018-2-11
最后登录
2020-6-8
听众
12
收听
0
主题
0
蓝光币
11 枚
贡献
0 点
QQ
发表于 2019-12-25 19:56:58 | 显示全部楼层

既然你诚信诚意的推荐了,那我就勉为其难的看看吧!中国高清电影网不走平凡路。
回复

使用道具 举报

级别:专业龙套 Lv.4

注册时间
2019-12-1
最后登录
2020-8-7
听众
5
收听
0
主题
0
蓝光币
421 枚
贡献
0 点
发表于 2020-1-5 12:46:23 | 显示全部楼层
强烈支持一下
回复

使用道具 举报

级别:初级观众 Lv.1

注册时间
2020-1-6
最后登录
2020-1-6
听众
2
收听
0
主题
0
蓝光币
2 枚
贡献
0 点
QQ
发表于 2020-1-6 20:26:12 | 显示全部楼层
这部电影下载了好多次都是下载不了,谢谢分享
回复

使用道具 举报

懒得打字嘛,点击右侧快捷回复 【右侧内容,后台自定义】
您需要登录后才可以回帖 登录 | 立即注册

本版积分规则

Archiver|手机版|小黑屋| 中国高清网 ( ICP备17007870号-2 ) |网站地图 

GMT+8, 2020-8-7 16:41 , Processed in 0.241441 second(s), 40 queries .

Powered by HDchina X3.4

Copyright 2017-2019©HDchina.All right reserved

返回顶部 联系我们