查看: 116|回复: 3

[喜剧片] 纽约的一个雨天/一个雨天在纽约 A.Rainy.Day.in.New.York.2019.1080p.BluRay.REMUX.AVC.DTS-HD.MA.5.1-FGT 19.31GB

[复制链接]

 成长值: 3810

级别:资源管理组

注册时间
2017-10-20
最后登录
2020-1-19
听众
1
收听
0
主题
90464
蓝光币
82872 枚
贡献
14826 点
发表于 2019-12-11 12:01:15 | 显示全部楼层 |阅读模式
纽约的一个雨天/一个雨天在纽约 A.Rainy.Day.in.New.York.2019.1080p.BluRay.REMUX.AVC.DTS-HD.MA.5.1-FGT 19.31GB-1.png

译  名 纽约的一个雨天 / 一个雨天,在纽约 / 情迷纽约下雨天(港) / 纽约有雨
片  名 A Rainy Day in New York
年  代 2019
产  地 美国
类  别 笑剧 / 恋爱
语  言 英语
上映日期 2019-07-26(波兰)
IMDb评分  6.9/10 from 6639 users
IMDb链接  https://www.imdb.com/title/tt7139936
豆瓣评分 7.6/10 from 1400 users
豆瓣链接 https://movie.douban.com/subject/27089612/
片  长 92分钟
导  演 伍迪·艾伦 Woody Allen
编  剧 伍迪·艾伦 Woody Allen
主  演 蒂莫西·柴勒梅德 Timothée Chalamet
       艾丽·范宁 Elle Fanning
       赛琳娜·戈麦斯 Selena Gomez
       裘德·洛 Jude Law
       迭戈·卢纳 Diego Luna
       列维·施瑞博尔 Liev Schreiber
       苏琪·沃特豪斯 Suki Waterhouse
       凯莉·罗尔巴赫 Kelly Rohrbach
       丽贝卡·豪尔 Rebecca Hall
       安娜莱吉·阿什福特 Annaleigh Ashford
       切莉·琼斯 Cherry Jones
       葛瑞芬·纽曼 Griffin Newman
       凯瑟琳·利·斯科特 Kathryn Leigh Scott
       娜塔莎·罗曼诺娃 Natasha Romanova
       维尔·罗杰斯 Will Rogers
       雅各布·伯杰 Jacob Berger
       克里斯·班克斯 Chris Banks
       艾恩斯利·丹恩 Aynsleigh Dann
       马科·查卡 Marko Caka
       达里尔·鲁本·霍尔 Darryl Reuben Hall
       Taylor Black
       Don Stephenson


标  签 甜茶 | 伍迪·艾伦 | 恋爱 | 美国 | 伍迪艾伦 | WoodyAllen | 文艺 | 电影

简  介  

  情迷巴塞隆拿、巴黎、罗马事后,活地亚伦始终最锺情故乡纽约,一沾雨露回春。年轻情侣来到曼克顿度周末,惋惜声色时光遇上滂湃大雨天,刚抽芽的恋爱被洒得乱七八糟。女方得见偶像导演,更与父辈男星堕入三角恋爱;男方为好友执导的黑色电影习作担任男配角,半真半假与女星来个法式湿吻意乱情迷。常识份子的知性浪漫演变成嫩男少艾的躁动神经质,记忆犹新续为曼克顿献上不老的情书。

获奖情况  

  第5届豆瓣电影年度榜单(2018)
  最值得期待的外语电影(提名)
  1. Video
  2. ID                                       : 1
  3. Format                                   : AVC
  4. Format/Info                              : Advanced Video Codec
  5. Format profile                           : High@L4
  6. Format settings                          : CABAC / 4 Ref Frames
  7. Format settings, CABAC                   : Yes
  8. Format settings, Reference frames        : 4 frames
  9. Format settings, GOP                     : M=3, N=24
  10. Codec ID                                 : V_MPEG4/ISO/AVC
  11. Duration                                 : 1 h 32 min
  12. Bit rate mode                            : Variable
  13. Bit rate                                 : 28.0 Mb/s
  14. Maximum bit rate                         : 35.0 Mb/s
  15. Width                                    : 1 920 pixels
  16. Height                                   : 1 080 pixels
  17. Display aspect ratio                     : 16:9
  18. Frame rate mode                          : Constant
  19. Frame rate                               : 23.976 (24000/1001) FPS
  20. Standard                                 : NTSC
  21. Color space                              : YUV
  22. Chroma subsampling                       : 4:2:0
  23. Bit depth                                : 8 bits
  24. Scan type                                : Progressive
  25. Bits/(Pixel*Frame)                       : 0.563
  26. Stream size                              : 18.1 GiB (94%)
  27. Title                                    : A.Rainy.Day.in.New.York.2019.1080p.BluRay.REMUX.AVC.DTS-HD.MA.5.1-FGT
  28. Language                                 : English
  29. Default                                  : No
  30. Forced                                   : No
  31. Color range                              : Limited
  32. Color primaries                          : BT.709
  33. Transfer characteristics                 : BT.709
  34. Matrix coefficients                      : BT.709

  35. Audio
  36. ID                                       : 2
  37. Format                                   : DTS XLL
  38. Format/Info                              : Digital Theater Systems
  39. Commercial name                          : DTS-HD Master Audio
  40. Codec ID                                 : A_DTS
  41. Duration                                 : 1 h 32 min
  42. Bit rate mode                            : Variable
  43. Bit rate                                 : 1 907 kb/s
  44. Channel(s)                               : 6 channels
  45. Channel layout                           : C L R Ls Rs LFE
  46. Sampling rate                            : 48.0 kHz
  47. Frame rate                               : 93.750 FPS (512 SPF)
  48. Bit depth                                : 16 bits
  49. Compression mode                         : Lossless
  50. Stream size                              : 1.23 GiB (6%)
  51. Title                                    : A.Rainy.Day.in.New.York.2019.1080p.BluRay.REMUX.AVC.DTS-HD.MA.5.1-FGT
  52. Language                                 : English
  53. Default                                  : Yes
  54. Forced                                   : No

  55. Text
  56. ID                                       : 3
  57. Format                                   : UTF-8
  58. Codec ID                                 : S_TEXT/UTF8
  59. Codec ID/Info                            : UTF-8 Plain Text
  60. Duration                                 : 1 h 29 min
  61. Bit rate                                 : 96 b/s
  62. Count of elements                        : 1630
  63. Stream size                              : 63.3 KiB (0%)
  64. Language                                 : English
  65. Default                                  : Yes
  66. Forced                                   : No

  67. Menu
  68. 00:00:00.000                             : en:Chapter 01
  69. 00:04:58.423                             : en:Chapter 02
  70. 00:07:39.375                             : en:Chapter 03
  71. 00:12:23.159                             : en:Chapter 04
  72. 00:16:56.640                             : en:Chapter 05
  73. 00:21:41.383                             : en:Chapter 06
  74. 00:27:55.799                             : en:Chapter 07
  75. 00:32:11.346                             : en:Chapter 08
  76. 00:37:20.988                             : en:Chapter 09
  77. 00:42:44.812                             : en:Chapter 10
  78. 00:45:11.542                             : en:Chapter 11
  79. 00:49:59.538                             : en:Chapter 12
  80. 00:54:46.366                             : en:Chapter 13
  81. 01:00:30.043                             : en:Chapter 14
  82. 01:04:27.488                             : en:Chapter 15
  83. 01:09:32.376                             : en:Chapter 16
  84. 01:12:15.789                             : en:Chapter 17
  85. 01:16:35.215                             : en:Chapter 18
  86. 01:21:22.836                             : en:Chapter 19
  87. 01:27:12.977                             : en:Chapter 20
复制代码

纽约的一个雨天/一个雨天在纽约 A.Rainy.Day.in.New.York.2019.1080p.BluRay.REMUX.AVC.DTS-HD.MA.5.1-FGT 19.31GB-1.png 纽约的一个雨天/一个雨天在纽约 A.Rainy.Day.in.New.York.2019.1080p.BluRay.REMUX.AVC.DTS-HD.MA.5.1-FGT 19.31GB-2.png 纽约的一个雨天/一个雨天在纽约 A.Rainy.Day.in.New.York.2019.1080p.BluRay.REMUX.AVC.DTS-HD.MA.5.1-FGT 19.31GB-4.png







VIP会员免费任意下载本站所有资源!---点击开通
回复

使用道具 举报

级别:普通观众 Lv.2

注册时间
2019-12-11
最后登录
2020-1-17
听众
1
收听
0
主题
0
蓝光币
82 枚
贡献
0 点
发表于 2019-12-12 17:30:50 | 显示全部楼层
楼主发贴辛苦了,谢谢楼主分享!我觉得中国高清电影网是注册对了!
VIP会员免费任意下载本站所有资源!---点击开通
回复

使用道具 举报

级别:一线明星 Lv.8

注册时间
2019-4-24
最后登录
2020-1-18
听众
14
收听
0
主题
0
蓝光币
257 枚
贡献
0 点
发表于 2019-12-18 15:34:51 | 显示全部楼层
楼主发贴辛苦了,谢谢楼主分享!我觉得中国高清电影网是注册对了!
VIP会员免费任意下载本站所有资源!---点击开通
回复

使用道具 举报

 成长值: 290

级别:尊贵的会员

注册时间
2019-12-21
最后登录
2020-1-11
听众
1
收听
0
主题
0
蓝光币
4 枚
贡献
0 点
发表于 2019-12-21 20:36:19 | 显示全部楼层

这个帖子不回对不起自己!我想我是一天也不能离开中国高清电影网
VIP会员免费任意下载本站所有资源!---点击开通
回复

使用道具 举报

懒得打字嘛,点击右侧快捷回复 【右侧内容,后台自定义】
您需要登录后才可以回帖 登录 | 立即注册

本版积分规则

Archiver|手机版|小黑屋| 中国高清网 |网站地图

GMT+8, 2020-1-19 10:10 , Processed in 0.322871 second(s), 37 queries .

Powered by HDchina X3.4

Copyright 2017-2019©HDchina.All right reserved

返回顶部 联系我们