查看: 57|回复: 0

[10bit.SDR] 小丑回魂2 It.Chapter.Two.2019.2160p.BluRay.x265.10bit.SDR.DTS-HD.MA.TrueHD.7.1.Atmos-SWTYBLZ 55.61GB

[复制链接]

 成长值: 3410

级别:资源管理组

注册时间
2017-10-20
最后登录
2019-12-10
听众
1
收听
0
主题
88361
蓝光币
69810 枚
贡献
12723 点
发表于 2019-12-2 20:56:36 | 显示全部楼层 |阅读模式
小丑回魂2 It.Chapter.Two.2019.2160p.BluRay.x265.10bit.SDR.DTS-HD.MA.TrueHD.7.1.Atmos-SWTYBLZ 55.61GB-1.png

译  名 小丑回魂2 / It 2 / 它:第二章(台)
片  名 It: Chapter Two
年  代 2019
产  地 美国
类  别 可骇
语  言 英语
上映日期 2019-09-06(美国)
IMDb评分  7.0/10 from 82324 users
IMDb链接  http://www.imdb.com/title/tt7349950
豆瓣评分 6.6/10 from 5037 users
豆瓣链接 https://movie.douban.com/subject/27133569/
片  长 169分钟
导  演 安德斯·穆斯切蒂 Andrés Muschietti
编  剧 加里·多伯曼 Gary Dauberman / 斯蒂芬·金 Stephen King
主  演 詹姆斯·麦卡沃伊 James McAvoy
       杰西卡·查斯坦 Jessica Chastain
       比尔·斯卡斯加德 Bill Skarsg?rd
       比尔·哈德尔 Bill Hader
       索菲娅·莉莉丝 Sophia Lillis
       杰克·迪伦·格雷泽 Jack Dylan Grazer
       菲恩·伍法德 Finn Wolfhard
       杰登·马泰尔 Jaeden Martell
       特洛伊·詹姆斯 Troy James
       哈维尔·博泰特 Javier Botet
       杰·瑞恩 Jay Ryan
       斯蒂芬·金 Stephen King
       杰克逊·罗伯特·斯科特 Jackson Robert Scott
       杰里米·雷·泰勒 Jeremy Ray Taylor
       泽维尔·多兰 Xavier Dolan
       杰克·威利 Jake Weary
       尼古拉斯·汉密尔顿 Nicholas Hamilton
       杰丝·威克斯勒 Jess Weixler
       詹姆斯·兰索恩 James Ransone
       瓦耶特·奥莱夫 Wyatt Oleff
       欧文·泰格 Owen Teague
       艾赛亚·穆斯塔法 Isaiah Mustafa
       安迪·比恩 Andy Bean
       蒂奇·格兰特 Teach Grant
       泰勒·飞瑞 Taylor Frey
       贾森·福克斯 Jason Fuchs
       乔森·雅各布 Chosen Jacobs
       斯蒂夫·博加尔特 Stephen Bogaert
       洛根·汤普森 Logan Thompson
       杰克·辛 Jake Sim
       维尔·贝布林克 Will Beinbrink
       安东尼·尤埃西 Anthony Ulc


标  签 可骇 | 惊悚 | 美国 | 2019 | 小说改编 | 超自然 | 典范 | 小丑

简  介  

  故事发生在1989年夏日事务的27年后,失利者俱乐部成员已经长大并搬走了,直到一个不详的电话把他们召回缅因州的德利镇,匹敌他们陈腐、会变形的仇敌—舞蹈小丑潘尼怀斯。
  1. Video
  2. ID                                       : 1
  3. Format                                   : HEVC
  4. Format/Info                              : High Efficiency Video Coding
  5. Format profile                           : Main High@L4@High
  6. Codec ID                                 : V_MPEGH/ISO/HEVC
  7. Duration                                 : 2 h 49 min
  8. Bit rate                                 : 38.5 Mb/s
  9. Width                                    : 3 840 pixels
  10. Height                                   : 1 608 pixels
  11. Display aspect ratio                     : 2.40:1
  12. Frame rate mode                          : Constant
  13. Frame rate                               : 23.976 (24000/1001) FPS
  14. Color space                              : YUV
  15. Chroma subsampling                       : 4:2:0
  16. Bit depth                                : 10 bits
  17. Bits/(Pixel*Frame)                       : 0.260
  18. Stream size                              : 45.6 GiB (82%)
  19. Title                                    : It.Chapter.Two.2019.2160p.BluRay.x265.10bit.SDR.DTS-HD.MA.TrueHD.7.1.Atmos-SWTYBLZ
  20. Writing library                          : x265 3.0ed72af837053:[Windows][GCC 8.2.0][64 bit] 10bit
  21. Encoding settings                        : cpuid=1111039 / frame-threads=16 / numa-pools=24,24,24,24 / wpp / no-pmode / no-pme / no-psnr / no-ssim / log-level=2 / input-csp=1 / input-res=3840x1608 / interlace=0 / total-frames=243722 / level-idc=51 / high-tier=1 / uhd-bd=0 / ref=3 / no-allow-non-conformance / repeat-headers / annexb / aud / hrd / info / hash=0 / no-temporal-layers / no-open-gop / min-keyint=1 / keyint=24 / gop-lookahead=0 / bframes=4 / b-adapt=2 / b-pyramid / bframe-bias=0 / rc-lookahead=25 / lookahead-slices=4 / scenecut=40 / radl=0 / no-splice / no-intra-refresh / ctu=64 / min-cu-size=8 / no-rect / no-amp / max-tu-size=32 / tu-inter-depth=1 / tu-intra-depth=1 / limit-tu=0 / rdoq-level=0 / dynamic-rd=0.00 / no-ssim-rd / signhide / no-tskip / nr-intra=0 / nr-inter=0 / no-constrained-intra / strong-intra-smoothing / max-merge=2 / limit-refs=3 / no-limit-modes / me=1 / subme=2 / merange=57 / temporal-mvp / weightp / no-weightb / no-analyze-src-pics / deblock=0:0 / no-sao / no-sao-non-deblock / rd=3 / no-early-skip / rskip / no-fast-intra / no-tskip-fast / no-cu-lossless / no-b-intra / no-splitrd-skip / rdpenalty=0 / psy-rd=2.00 / psy-rdoq=0.00 / no-rd-refine / no-lossless / cbqpoffs=0 / crqpoffs=0 / rc=crf / crf=16.0 / qcomp=0.60 / qpstep=4 / stats-write=0 / stats-read=0 / vbv-maxrate=160000 / vbv-bufsize=160000 / vbv-init=0.9 / crf-max=0.0 / crf-min=0.0 / ipratio=1.40 / pbratio=1.30 / aq-mode=1 / aq-strength=1.00 / cutree / zone-count=0 / no-strict-cbr / qg-size=32 / no-rc-grain / qpmax=69 / qpmin=0 / no-const-vbv / sar=1 / overscan=0 / videoformat=5 / range=0 / colorprim=2 / transfer=2 / colormatrix=2 / chromaloc=0 / display-window=0 / max-cll=0,0 / min-luma=0 / max-luma=1023 / log2-max-poc-lsb=8 / vui-timing-info / vui-hrd-info / slices=1 / opt-qp-pps / opt-ref-list-length-pps / no-multi-pass-opt-rps / scenecut-bias=0.05 / no-opt-cu-delta-qp / no-aq-motion / no-hdr / no-hdr-opt / no-dhdr10-opt / no-idr-recovery-sei / analysis-reuse-level=5 / scale-factor=0 / refine-intra=0 / refine-inter=0 / refine-mv=0 / refine-ctu-distortion=0 / no-limit-sao / ctu-info=0 / no-lowpass-dct / refine-analysis-type=0 / copy-pic=1 / max-ausize-factor=1.0 / no-dynamic-refine / no-single-sei / no-hevc-aq / qp-adaptation-range=1.00
  22. Default                                  : Yes
  23. Forced                                   : No

  24. Audio #1
  25. ID                                       : 2
  26. Format                                   : MLP FBA 16-ch
  27. Format/Info                              : Meridian Lossless Packing FBA with 16-channel presentation
  28. Commercial name                          : Dolby TrueHD with Dolby Atmos
  29. Codec ID                                 : A_TRUEHD
  30. Duration                                 : 2 h 49 min
  31. Bit rate mode                            : Variable
  32. Bit rate                                 : 3 408 kb/s
  33. Maximum bit rate                         : 5 559 kb/s
  34. Channel(s)                               : 8 channels
  35. Channel layout                           : L R C LFE Ls Rs Lb Rb
  36. Sampling rate                            : 48.0 kHz
  37. Frame rate                               : 1 200.000 FPS (40 SPF)
  38. Compression mode                         : Lossless
  39. Stream size                              : 4.03 GiB (7%)
  40. Title                                    : It.Chapter.Two.2019.2160p.BluRay.x265.10bit.SDR.DTS-HD.MA.TrueHD.7.1.Atmos-SWTYBLZ
  41. Language                                 : English
  42. Default                                  : Yes
  43. Forced                                   : No
  44. Number of dynamic objects                : 15
  45. Bed channel count                        : 1 channel
  46. Bed channel configuration                : LFE

  47. Audio #2
  48. ID                                       : 3
  49. Format                                   : DTS XLL
  50. Format/Info                              : Digital Theater Systems
  51. Commercial name                          : DTS-HD Master Audio
  52. Codec ID                                 : A_DTS
  53. Duration                                 : 2 h 49 min
  54. Bit rate mode                            : Variable
  55. Bit rate                                 : 4 093 kb/s
  56. Channel(s)                               : 8 channels
  57. Channel layout                           : C L R LFE Lb Rb Lss Rss
  58. Sampling rate                            : 48.0 kHz
  59. Frame rate                               : 93.750 FPS (512 SPF)
  60. Bit depth                                : 24 bits
  61. Compression mode                         : Lossless
  62. Stream size                              : 4.84 GiB (9%)
  63. Title                                    : It.Chapter.Two.2019.2160p.BluRay.x265.10bit.SDR.DTS-HD.MA.TrueHD.7.1.Atmos-SWTYBLZ
  64. Language                                 : English
  65. Default                                  : No
  66. Forced                                   : No

  67. Audio #3
  68. ID                                       : 4
  69. Format                                   : AC-3
  70. Format/Info                              : Audio Coding 3
  71. Commercial name                          : Dolby Digital
  72. Codec ID                                 : A_AC3
  73. Duration                                 : 2 h 49 min
  74. Bit rate mode                            : Constant
  75. Bit rate                                 : 640 kb/s
  76. Channel(s)                               : 6 channels
  77. Channel layout                           : L R C LFE Ls Rs
  78. Sampling rate                            : 48.0 kHz
  79. Frame rate                               : 31.250 FPS (1536 SPF)
  80. Bit depth                                : 16 bits
  81. Compression mode                         : Lossy
  82. Stream size                              : 776 MiB (1%)
  83. Title                                    : It.Chapter.Two.2019.2160p.BluRay.x265.10bit.SDR.DTS-HD.MA.TrueHD.7.1.Atmos-SWTYBLZ
  84. Language                                 : English
  85. Service kind                             : Complete Main
  86. Default                                  : No
  87. Forced                                   : No

  88. Text #1
  89. ID                                       : 5
  90. Format                                   : UTF-8
  91. Codec ID                                 : S_TEXT/UTF8
  92. Codec ID/Info                            : UTF-8 Plain Text
  93. Duration                                 : 2 h 44 min
  94. Bit rate                                 : 50 b/s
  95. Count of elements                        : 2404
  96. Stream size                              : 60.4 KiB (0%)
  97. Title                                    : English-SRT
  98. Language                                 : English
  99. Default                                  : Yes
  100. Forced                                   : No

  101. Text #2
  102. ID                                       : 6
  103. Format                                   : PGS
  104. Muxing mode                              : zlib
  105. Codec ID                                 : S_HDMV/PGS
  106. Codec ID/Info                            : Picture based subtitle format used on BDs/HD-DVDs
  107. Duration                                 : 2 h 44 min
  108. Bit rate                                 : 34.3 kb/s
  109. Count of elements                        : 5486
  110. Stream size                              : 40.4 MiB (0%)
  111. Title                                    : English-PGS
  112. Language                                 : English
  113. Default                                  : No
  114. Forced                                   : No

  115. Text #3
  116. ID                                       : 7
  117. Format                                   : PGS
  118. Muxing mode                              : zlib
  119. Codec ID                                 : S_HDMV/PGS
  120. Codec ID/Info                            : Picture based subtitle format used on BDs/HD-DVDs
  121. Duration                                 : 2 h 48 min
  122. Bit rate                                 : 22.0 kb/s
  123. Count of elements                        : 3930
  124. Stream size                              : 26.5 MiB (0%)
  125. Title                                    : French-PGS
  126. Language                                 : French
  127. Default                                  : No
  128. Forced                                   : No

  129. Text #4
  130. ID                                       : 8
  131. Format                                   : PGS
  132. Muxing mode                              : zlib
  133. Codec ID                                 : S_HDMV/PGS
  134. Codec ID/Info                            : Picture based subtitle format used on BDs/HD-DVDs
  135. Duration                                 : 2 h 49 min
  136. Bit rate                                 : 32.3 kb/s
  137. Count of elements                        : 5586
  138. Stream size                              : 39.1 MiB (0%)
  139. Title                                    : Italian-PGS
  140. Language                                 : Italian
  141. Default                                  : No
  142. Forced                                   : No

  143. Text #5
  144. ID                                       : 9
  145. Format                                   : PGS
  146. Muxing mode                              : zlib
  147. Codec ID                                 : S_HDMV/PGS
  148. Codec ID/Info                            : Picture based subtitle format used on BDs/HD-DVDs
  149. Duration                                 : 2 h 48 min
  150. Bit rate                                 : 24.9 kb/s
  151. Count of elements                        : 4614
  152. Stream size                              : 30.0 MiB (0%)
  153. Title                                    : Chinese-PGS
  154. Language                                 : Chinese
  155. Default                                  : No
  156. Forced                                   : No

  157. Text #6
  158. ID                                       : 10
  159. Format                                   : PGS
  160. Muxing mode                              : zlib
  161. Codec ID                                 : S_HDMV/PGS
  162. Codec ID/Info                            : Picture based subtitle format used on BDs/HD-DVDs
  163. Duration                                 : 2 h 48 min
  164. Bit rate                                 : 30.4 kb/s
  165. Count of elements                        : 4680
  166. Stream size                              : 36.7 MiB (0%)
  167. Title                                    : Chinese-PGS
  168. Language                                 : Chinese
  169. Default                                  : No
  170. Forced                                   : No

  171. Text #7
  172. ID                                       : 11
  173. Format                                   : PGS
  174. Muxing mode                              : zlib
  175. Codec ID                                 : S_HDMV/PGS
  176. Codec ID/Info                            : Picture based subtitle format used on BDs/HD-DVDs
  177. Duration                                 : 2 h 48 min
  178. Bit rate                                 : 25.5 kb/s
  179. Count of elements                        : 4238
  180. Stream size                              : 30.7 MiB (0%)
  181. Title                                    : Chinese-PGS
  182. Language                                 : Chinese
  183. Default                                  : No
  184. Forced                                   : No

  185. Text #8
  186. ID                                       : 12
  187. Format                                   : PGS
  188. Muxing mode                              : zlib
  189. Codec ID                                 : S_HDMV/PGS
  190. Codec ID/Info                            : Picture based subtitle format used on BDs/HD-DVDs
  191. Duration                                 : 2 h 48 min
  192. Bit rate                                 : 16.8 kb/s
  193. Count of elements                        : 4464
  194. Stream size                              : 20.3 MiB (0%)
  195. Title                                    : Korean-PGS
  196. Language                                 : Korean
  197. Default                                  : No
  198. Forced                                   : No

  199. Text #9
  200. ID                                       : 13
  201. Format                                   : PGS
  202. Muxing mode                              : zlib
  203. Codec ID                                 : S_HDMV/PGS
  204. Codec ID/Info                            : Picture based subtitle format used on BDs/HD-DVDs
  205. Duration                                 : 2 h 48 min
  206. Bit rate                                 : 26.1 kb/s
  207. Count of elements                        : 4476
  208. Stream size                              : 31.5 MiB (0%)
  209. Title                                    : Spanish-PGS
  210. Language                                 : Spanish
  211. Default                                  : No
  212. Forced                                   : No

  213. Text #10
  214. ID                                       : 14
  215. Format                                   : PGS
  216. Muxing mode                              : zlib
  217. Codec ID                                 : S_HDMV/PGS
  218. Codec ID/Info                            : Picture based subtitle format used on BDs/HD-DVDs
  219. Duration                                 : 2 h 48 min
  220. Bit rate                                 : 27.4 kb/s
  221. Count of elements                        : 4584
  222. Stream size                              : 33.1 MiB (0%)
  223. Title                                    : Spanish-PGS
  224. Language                                 : Spanish
  225. Default                                  : No
  226. Forced                                   : No

  227. Text #11
  228. ID                                       : 15
  229. Format                                   : PGS
  230. Muxing mode                              : zlib
  231. Codec ID                                 : S_HDMV/PGS
  232. Codec ID/Info                            : Picture based subtitle format used on BDs/HD-DVDs
  233. Duration                                 : 2 h 48 min
  234. Bit rate                                 : 25.9 kb/s
  235. Count of elements                        : 4490
  236. Stream size                              : 31.2 MiB (0%)
  237. Title                                    : Portuguese-PGS
  238. Language                                 : Portuguese
  239. Default                                  : No
  240. Forced                                   : No

  241. Text #12
  242. ID                                       : 16
  243. Format                                   : PGS
  244. Muxing mode                              : zlib
  245. Codec ID                                 : S_HDMV/PGS
  246. Codec ID/Info                            : Picture based subtitle format used on BDs/HD-DVDs
  247. Duration                                 : 2 h 48 min
  248. Bit rate                                 : 27.1 kb/s
  249. Count of elements                        : 4614
  250. Stream size                              : 32.7 MiB (0%)
  251. Title                                    : Thai-PGS
  252. Language                                 : Thai
  253. Default                                  : No
  254. Forced                                   : No

  255. Menu
  256. 00:00:00.000                             : en:Chapter 01
  257. 00:09:10.216                             : en:Chapter 02
  258. 00:19:06.270                             : en:Chapter 03
  259. 00:27:00.744                             : en:Chapter 04
  260. 00:37:51.060                             : en:Chapter 05
  261. 00:46:19.693                             : en:Chapter 06
  262. 00:55:46.468                             : en:Chapter 07
  263. 01:05:36.182                             : en:Chapter 08
  264. 01:17:18.759                             : en:Chapter 09
  265. 01:29:21.522                             : en:Chapter 10
  266. 01:41:02.973                             : en:Chapter 11
  267. 01:49:11.211                             : en:Chapter 12
  268. 01:59:33.666                             : en:Chapter 13
  269. 02:05:31.774                             : en:Chapter 14
  270. 02:14:25.932                             : en:Chapter 15
  271. 02:22:43.888                             : en:Chapter 16
  272. 02:32:57.042                             : en:Chapter 17
  273. 02:42:15.475                             : en:Chapter 18
  274. 02:44:52.424                             : en:Chapter 19
复制代码

小丑回魂2 It.Chapter.Two.2019.2160p.BluRay.x265.10bit.SDR.DTS-HD.MA.TrueHD.7.1.Atmos-SWTYBLZ 55.61GB-1.png 小丑回魂2 It.Chapter.Two.2019.2160p.BluRay.x265.10bit.SDR.DTS-HD.MA.TrueHD.7.1.Atmos-SWTYBLZ 55.61GB-3.png 小丑回魂2 It.Chapter.Two.2019.2160p.BluRay.x265.10bit.SDR.DTS-HD.MA.TrueHD.7.1.Atmos-SWTYBLZ 55.61GB-4.png 小丑回魂2 It.Chapter.Two.2019.2160p.BluRay.x265.10bit.SDR.DTS-HD.MA.TrueHD.7.1.Atmos-SWTYBLZ 55.61GB-5.png 小丑回魂2 It.Chapter.Two.2019.2160p.BluRay.x265.10bit.SDR.DTS-HD.MA.TrueHD.7.1.Atmos-SWTYBLZ 55.61GB-6.png 小丑回魂2 It.Chapter.Two.2019.2160p.BluRay.x265.10bit.SDR.DTS-HD.MA.TrueHD.7.1.Atmos-SWTYBLZ 55.61GB-7.png 小丑回魂2 It.Chapter.Two.2019.2160p.BluRay.x265.10bit.SDR.DTS-HD.MA.TrueHD.7.1.Atmos-SWTYBLZ 55.61GB-8.png







本帖隐藏的下载地址需要VIP会员才可阅读,您需要升级才可阅读,点击这里升级VIP
VIP会员免费任意下载本站所有资源!---点击开通
回复

使用道具 举报

懒得打字嘛,点击右侧快捷回复 【右侧内容,后台自定义】
您需要登录后才可以回帖 登录 | 立即注册

本版积分规则

QQ|Archiver|手机版|小黑屋| 中国高清网 |网站地图

GMT+8, 2019-12-10 15:28 , Processed in 0.284625 second(s), 37 queries .

Powered by HDchina X3.4

Copyright 2017-2019©HDchina.All right reserved

返回顶部 联系我们