查看: 30|回复: 1

[恐怖片] 泥人哥连出世记 The.Golem.1920.720p.BluRay.x264-GHOULS 3.28GB

[复制链接]

 成长值: 3410

级别:资源管理组

注册时间
2017-10-20
最后登录
2019-12-10
听众
1
收听
0
主题
88361
蓝光币
69810 枚
贡献
12723 点
发表于 2019-12-2 20:45:31 | 显示全部楼层 |阅读模式
泥人哥连出世记 The.Golem.1920.720p.BluRay.x264-GHOULS 3.28GB-1.png , c* f6 j- n. r2 z* X5 A3 T" n
. a2 `) T( f1 V8 z. c
译  名 泥人哥连出世记 / The Golem / The Golem: How He Came Into the World* n' n& t+ _4 T. {8 G" ~: Z1 T, T" _
片  名 Der Golem, wie er in die Welt kam
1 l. }/ p' ^! V5 [8 g4 H3 b7 _年  代 1920* T! P# l) g# G8 [4 |) z! R+ z
产  地 德国
* g, W* C& _! ^8 T" ~7 A类  别 可骇 / 奇异
: e  \8 t! q" f& ]/ r: r' x语  言 默片
  b2 U) }/ y% v5 g& j, T上映日期 1920-10-296 ]2 d7 o1 n, |: `/ m! P( f( d1 o
IMDb评分  7.2/10 from 5963 users
& o+ c( l7 I$ f$ tIMDb链接  https://www.imdb.com/title/tt0011237
: g3 U  A: b9 X- ^9 R豆瓣评分 7.8/10 from 356 users
: p: D* Y0 W' k) N) v豆瓣链接 https://movie.douban.com/subject/1441474/4 ~+ [! ^* R: z: |7 I4 m6 U' B
片  长 Germany: 85 分钟(20 fps)$ }0 ]* D3 R8 J0 }
导  演 卡尔·伯泽 Carl Boese / 保罗·威格纳 Paul Wegener
3 j/ b8 }9 f0 z, D编  剧 亨利克·加仑 Henrik Galeen / 保罗·威格纳 Paul Wegener
0 f2 L: ]% k$ N" d% z主  演 Paul Wegener
8 _6 _8 w" g% Q       Albert Steinrück
* L# ^! v6 |. W" W% D' A+ Q       Lyda Salmonova, `4 |* C2 R- e" f7 n
+ I, b) t0 f4 L9 C3 O, n' O

, |- M! {7 J- V' ^: _标  签 德国 | 表示主义 | 默片 | 德国电影 | 1920s | 哥特 | 1920 | 可骇: ?% i5 H/ s4 r4 g! J

" K* m' l  u$ F( d* F9 q" Y& q  w简  介  * k# v" R% b! u8 l8 n
1 T: F  b! f5 r( C; S, F: O! U" J
  德国表示主义代表作品# _4 u7 I) ?, f
  A
" J* S; [! K& w1 q6 L" N. z, `  公元4世纪的犹太教法典(Talmud)中提到过Rava造golem的事。Rava的全称叫Rabbi Abba ben Rav Hamma,他造了一个不会措辞的“人”。他把这个“人”送到Rav Zera眼前,由于它对问话没有反应,Zera就说:“你准是由我的某个同业造的。回归灰尘吧。” (Sanhedrin 65b)  在宗教意义上,只要天主造的人材是完整的人,才会措辞,而Rava造的不是实在的人。依照犹太传统,那时那些拉比(Rabbis)和大贤(Sages)都能造人大概动物Golems,这并没有什么出格之处。
4 H+ t* ^+ g/ \) H1 _  B
+ J% I5 v  S# K4 F; k7 _& _' d  Golem的传闻后来逐步改变,十七世纪由布拉格的Rabbi Loew(Rabbi意犹太教的学者)缔造了一个Golem来庇护住在犹太区的犹太人免遭反犹主义的暴力侵扰。为避免麻烦,故事中的学者总是在Golem完成它的使命今后,再自觉地把它重新变回为无生命的土壤。一天,Rabbi忘记将Golem变回土壤,当城市一切人已经作星期去了,Golem发怒损坏全城。这个故事架构一向到十九、二十世纪都还在文学著作里出现,最著名的是Gustav Meyrink的《Der Golem》,在一九一五年普遍被阅读,值得探讨的是,这样的小说恰好出现在产业反动的时代。这反应了人们对于科技所带来伦理的应战的惊慌。5 i0 p# b# j7 G9 z! C% N
  C
% n9 k: y/ u2 k9 b  1920年由Carl Boese和Paul Wegener执导的典范默片Der Golem, wie er in die Welt kam (The Golem: How He Came Into the World) 就是改编自Gustav Meyrink的小说。这部影片集合表现了德国表示主义艺术的特点,对Fritz Lang等导演发生太严重影响。其中经心设想了手提灯光、煤油灯光、火把等一系列光源结果,用于表示人物的心理状态,营建影片的情况氛围。这类具有表示力地应用灯光结果的方式,终极成长为一切德国电影形式表示的一大特征,同时也为电影可骇片的外型的表示手段供给了经历。
0 E8 P9 F5 Z7 K  D- ?/ O# f) r% `0 J
  Golem的传闻一样也是玛丽·雪莱的著名科幻小说《弗兰肯斯坦》的来历之一,不外分歧的是:传闻中的Golem拙笨、冒失,既不晓得自己有多大的气力,也不晓得自己有多笨大概有多蒙昧;而在玛丽·雪莱笔下,维克多·弗兰肯斯坦所缔造的怪物虽然鲁莽,但却长于进修,极富人性,晓得疾苦、怜悯、怜悯、倾慕、懊悔等等人类的感情,甚至近年轻的弗兰肯斯坦本人还成熟些。十八世纪的启蒙活动由提倡理性主义成长到前期,理性起头压制人的感情,理性主义酿成一种冰冷僵硬的工具。因而在德国兴起了否决启蒙活动的浪漫主义活动,十九世纪前期,浪漫主义文学囊括欧美,玛丽·雪莱的《弗兰肯斯坦》就是在这个布景下诞生的。不外在浅显文学中反理性反科学的偏向总是显得有些矫枉过正,科学和科学家的形象被简单化、平面化,这类描画“科学怪人”的方式在默片时代的德国表示主义电影中已经非常兴盛,后来一向在好莱坞很多低劣的科幻片(这类电影的一大特点就是不竭拍摄越来越低劣的续集)中继续。
" L' D0 L, R1 r% w  E今世科学哲学研讨最热门的一个偏向是科学常识社会学(SSK),研讨方式是深入到科学具体研讨进程中,细致考查经费筹集、论文颁发等每一个环节,研讨科学常识是若何建构起来的,夸大社会身分在建构进程中的感化。SSK的代表人物柯林斯战争奇在1993年出书过一本提高性的小册子,名字就叫Golem,翻译成《勾画姆:关于科学人们应晓得些什么》。柯林斯坦诚地说,他这部书是想用“勾画姆”诠释“科学”,“我们试图证实它不是一个邪恶的造物,只是有点疯狂(或译成‘傻’)(it is not an evilcreature but it is a little daft)。不要责备勾画姆科学的过失;是我们人类在出毛病。假如勾画姆极力做其自己的工作,它不应遭到责备。可是我们不能期望过量。勾画姆虽然强有力,它却是我们的文化(art)大概我们的身手(craft)的造物。”SSK经常被斥为带有反科学偏向,但可以看出,它与浪漫主义期间的反科学偏向完全分歧。它所描画的科学形象饱满,有血有肉,它所谓的“反科学”不过是要抹去那些被强加于科学的重重面纱,还科学一个实在的脸孔,绝非19世纪简单的拒斥、贬低科学。9 w! v8 _! c) [. n
  1. Video6 l1 `5 B+ m/ _3 h+ C
  2. ID                                       : 1
    6 l+ \6 L, w" @/ {% O
  3. Format                                   : AVC
    " z- D$ E; |0 j: m6 S( Q& D+ o; V% K9 ~
  4. Format/Info                              : Advanced Video Codec
    + x( N$ {5 |3 Q+ W/ M" I0 u
  5. Format profile                           : High@L4# M& Y7 S" `) N  c
  6. Format settings                          : CABAC / 12 Ref Frames
    4 b: n9 j* Y# ]1 Q
  7. Format settings, CABAC                   : Yes
    + D; B# T+ a0 m7 E% u5 c( S
  8. Format settings, Reference frames        : 12 frames
    & I# b( P# F# t7 c3 b% b
  9. Codec ID                                 : V_MPEG4/ISO/AVC- {, M' q+ J. Z" U3 y
  10. Duration                                 : 1 h 16 min
    9 s% F3 g" f. q; S( h+ E
  11. Bit rate                                 : 4 979 kb/s
    , Z4 X! s& P! o/ Q* I9 \/ V3 P
  12. Width                                    : 960 pixels
    ! {) X- i9 I" ~/ A1 P4 ~% n' Q
  13. Height                                   : 720 pixels7 y+ o( R& g) s& @
  14. Display aspect ratio                     : 4:3
    + I3 \+ _! d2 Q0 S
  15. Frame rate mode                          : Constant% X0 o6 O: G+ I- `
  16. Frame rate                               : 19.980 (20000/1001) FPS
    ' O4 V% _" S" d. s& m: v% _: Q
  17. Color space                              : YUV
    4 U7 \- N, P2 Z) |* p# ?' R
  18. Chroma subsampling                       : 4:2:0
    " I$ F+ R7 R7 L: F: |4 z
  19. Bit depth                                : 8 bits
    - a+ ~& ]; ^9 O
  20. Scan type                                : Progressive) X% D$ a5 `: {/ @% c  L; W& E
  21. Bits/(Pixel*Frame)                       : 0.361
    1 u1 D: N. z) }( _; Y
  22. Stream size                              : 2.65 GiB (81%)- x3 v3 e4 A! J' c! x3 M  H
  23. Writing library                          : x264 core 158 r2988 7817004
    9 a# k1 R; B# n. W/ D6 D
  24. Encoding settings                        : cabac=1 / ref=12 / deblock=1:-3:-3 / analyse=0x3:0x133 / me=umh / subme=9 / psy=1 / psy_rd=1.00:0.00 / mixed_ref=1 / me_range=24 / chroma_me=1 / trellis=1 / 8x8dct=1 / cqm=0 / deadzone=21,11 / fast_pskip=0 / chroma_qp_offset=-2 / threads=22 / lookahead_threads=3 / sliced_threads=0 / nr=0 / decimate=1 / interlaced=0 / bluray_compat=0 / constrained_intra=0 / bframes=8 / b_pyramid=2 / b_adapt=2 / b_bias=0 / direct=3 / weightb=1 / open_gop=0 / weightp=2 / keyint=250 / keyint_min=19 / scenecut=40 / intra_refresh=0 / rc_lookahead=60 / rc=2pass / mbtree=1 / bitrate=4979 / ratetol=1.0 / qcomp=0.60 / qpmin=0 / qpmax=69 / qpstep=4 / cplxblur=20.0 / qblur=0.5 / vbv_maxrate=62500 / vbv_bufsize=78125 / nal_hrd=none / filler=0 / ip_ratio=1.40 / aq=1:1.00
    , L/ U; r2 K: [2 T$ m) ~' _
  25. Default                                  : Yes
    0 m' ^" _; X2 _
  26. Forced                                   : No+ N, r1 |, {6 L/ j2 S

  27. 8 w: t! K% C2 b, M
  28. Audio
    - ?9 i! f6 l, p8 R! ]/ g% B" t/ Z
  29. ID                                       : 2
    ; }+ q4 B6 l4 G) e3 f/ o& B
  30. Format                                   : FLAC
    ( G7 ^1 E- i- f- ?2 V
  31. Format/Info                              : Free Lossless Audio Codec
    * X1 s+ k# |, d1 v
  32. Codec ID                                 : A_FLAC
    + i, e% H, D9 Q1 l
  33. Duration                                 : 1 h 16 min
    . }- y$ H' ?6 O; t
  34. Bit rate mode                            : Variable
    & M$ \+ \' z) z2 E7 e2 a
  35. Bit rate                                 : 1 176 kb/s
    * [+ x3 ^' d% o3 S6 {0 j* W" K
  36. Channel(s)                               : 2 channels4 ^* k0 s: T' v5 o5 j! V
  37. Channel layout                           : L R! o3 Z2 @2 k  H2 L6 d
  38. Sampling rate                            : 48.0 kHz
    " k: \8 B( W  F3 v% I: A/ D- ^
  39. Frame rate                               : 10.417 FPS (4608 SPF)
      |9 M2 o. \1 s
  40. Bit depth                                : 24 bits
    * G4 }7 [& Y. C% M9 M5 N+ i+ u: v
  41. Compression mode                         : Lossless
    " w* U* o# g2 S" Z2 J+ h
  42. Stream size                              : 641 MiB (19%)4 V) \, w9 q) E$ `
  43. Writing library                          : Lavf58.29.100
    $ s- \: H" |' A( ^" \5 X
  44. Language                                 : English5 z1 D6 M, h5 a: a6 A' K
  45. Default                                  : Yes. _0 Y) ~! ^( D, R6 {1 C
  46. Forced                                   : No
    ; k8 M9 X; z7 M3 |
  47. 4 w5 _8 y% {+ M/ m0 b! k2 H: G6 N
  48. Text/ o& c2 `" ]0 [& m2 N" d: e
  49. ID                                       : 3; \" ?. ]4 H- d7 c- g" K; D
  50. Format                                   : UTF-8* o2 p. l+ T% F9 y5 H$ f* y
  51. Codec ID                                 : S_TEXT/UTF8
    # r- K) Q/ F# L1 _) O6 x
  52. Codec ID/Info                            : UTF-8 Plain Text
    ! V3 H* c# i' e7 _
  53. Duration                                 : 1 h 15 min
    & J/ b7 A1 M/ g+ f* d
  54. Bit rate                                 : 12 b/s( i/ J, s! p6 i7 f
  55. Count of elements                        : 166
    6 ~! g( l$ L! |
  56. Stream size                              : 6.81 KiB (0%)+ x6 L6 Q# k( Y) y4 _
  57. Language                                 : English; E: i( m. c9 @- W7 ~7 g: @- R
  58. Default                                  : Yes: k7 y! ?4 S: f8 S5 e& L7 S
  59. Forced                                   : No- F) ]& d4 e& b7 |* e8 t; L  R! j$ X

  60. 5 ]3 y8 x+ b7 O- a
  61. Menu
    " v1 @) j; d; E+ a0 P
  62. 00:00:00.000                             : en:Chapter 01, B: |! ^, Z6 H) U, C6 t
  63. 00:08:19.040                             : en:Chapter 028 o* `* _2 J9 J3 |
  64. 00:19:05.519                             : en:Chapter 03
    * i: z# S. t" U& O: b! Z
  65. 00:28:51.521                             : en:Chapter 04: x3 D% ]  A1 J# K7 L
  66. 00:40:34.015                             : en:Chapter 05
    9 [$ P( A& t9 v* L! ~: l
  67. 00:51:01.809                             : en:Chapter 06
    ! J8 O2 ^* O2 n& G& q/ N
  68. 01:00:15.070                             : en:Chapter 07/ @2 M$ G- y, Z' g" c& G
  69. 01:10:18.464                             : en:Chapter 08
复制代码

9 |9 M! |3 ^% e" G6 K  C 泥人哥连出世记 The.Golem.1920.720p.BluRay.x264-GHOULS 3.28GB-2.png ' H" o9 l# V% b# P& L6 b

# y0 T. E' j8 C) G$ k: _3 X' Y6 `% w. m- \- G6 ]

3 G" l4 ]# o* P9 m4 N/ t
% c$ W6 z& N% k/ f
) q* [& V1 ], ^1 G* Z4 r; t  [* W5 r) o# m& D
3 x; A. v% f( z' s( U: v" F! a
VIP会员免费任意下载本站所有资源!---点击开通
回复

使用道具 举报

级别:一线明星 Lv.8

注册时间
2019-4-24
最后登录
2019-12-10
听众
14
收听
0
主题
0
蓝光币
214 枚
贡献
0 点
发表于 7 天前 | 显示全部楼层
楼主发贴辛苦了,谢谢楼主分享!我觉得中国高清电影网是注册对了!
VIP会员免费任意下载本站所有资源!---点击开通
回复

使用道具 举报

懒得打字嘛,点击右侧快捷回复 【右侧内容,后台自定义】
您需要登录后才可以回帖 登录 | 立即注册

本版积分规则

QQ|Archiver|手机版|小黑屋| 中国高清网 |网站地图

GMT+8, 2019-12-10 15:26 , Processed in 0.294958 second(s), 37 queries .

Powered by HDchina X3.4

Copyright 2017-2019©HDchina.All right reserved

返回顶部 联系我们