查看: 29|回复: 1

[科幻片] 怪兽王哥斯拉 Godzilla.King.of.the.Monsters.1956.Criterion.720p.BluRay.x264-JRP 4.38GB

[复制链接]

 成长值: 3410

级别:资源管理组

注册时间
2017-10-20
最后登录
2019-12-10
听众
1
收听
0
主题
88361
蓝光币
69834 枚
贡献
12723 点
发表于 2019-12-2 20:41:32 | 显示全部楼层 |阅读模式
怪兽王哥斯拉 Godzilla.King.of.the.Monsters.1956.Criterion.720p.BluRay.x264-JRP 4.38GB-1.png
- I; l. u: \* ]8 d: j9 d" M$ a6 d" C- U% A
译  名 怪兽王哥斯拉
+ C( C( `' o! f2 S4 {片  名 Godzilla, King of the Monsters!# L5 R) l5 T: c) k4 R4 G9 l' N
年  代 1956
4 w9 V: A' L& i, L2 e- \& b: x7 T产  地 美国 / 日本8 h7 a* S+ h6 J7 g5 h) y5 O
类  别 行动 / 科幻 / 可骇6 ~) a# Z) A8 |1 b
语  言 英语 / 日语  V9 f# y5 h- N0 I2 \
上映日期 1956-04-27+ V( p% Y, Q$ j! l9 M9 m, \' E
IMDb评分  6.6/10 from 6263 users
) u0 U* [( V  D* P- WIMDb链接  http://www.imdb.com/title/tt01975218 {# y7 b; O3 P6 }$ {8 X/ y+ j
豆瓣评分 5.8/10 from 246 users5 b: u% x0 X+ m0 A' Y; K
豆瓣链接 https://movie.douban.com/subject/1294095/7 J, \# y* n0 v  w
片  长 80 分钟(original U.S. theatrical release version)
* }2 E2 {  ~8 [) M导  演 本多猪四郎  Ishir? Honda / Terry O. Morse4 D! {( j9 q9 s, z: `$ G' G% z
编  剧 Al C. Ward / 本多猪四郎  Ishir? Honda / 香山滋 Shigeru Kayama/ W( E3 s8 S3 {
主  演 雷蒙德·布尔 Raymond Burr: _+ \( q6 S  O" h
      志村乔 Takashi Shimura
% }6 d9 G& q/ J# C3 k( s6 O9 y      宝田明 Akira Takarada
, A! f& T/ V+ G8 y: k6 p      平田昭彦 Akihiko Hirata
& ^  F* x: b8 a( ]$ X      小川虎之助 Toranosuke Ogawa3 |. e* N" G# O5 E
      Toyoaki Suzuki
3 d. F0 r8 b* `7 y) r
, k# V$ u* o0 F/ ?; C7 I; f8 w; `# S7 j$ Q6 q! q- f# q8 K
标  签 日本 | 科幻 | 哥斯拉 | 本多猪四郎 | 美国 | 日本电影 | 1950s | 美国电影- g6 m9 F) Z6 M/ ?0 H

/ \& p: [5 b9 J9 A5 D简  介  2 F/ y( t) f" f4 b% w& y

* n  @6 |3 P% N5 k6 A  来自美国《天下消息》报社的记者斯蒂芬·马丁(雷蒙德·波尔 Raymond Burr 饰)乘飞机前往开罗,在东京起色时代却遭受令他永生难忘的工作。日本方面一艘打捞船忽然与陆地落空联系,前往救济的船只也不幸遇难。从幸存者的口中众人得知,这些遇难船遭到了可骇的怪物哥斯拉的攻击。著名古生物学家山根京平博士对遭受攻击的大户岛停止勘查,证实哥斯拉实为两百万年前侏罗纪时代存活下来的恐龙,由于遭到原子弹的辐射和氢弹实验的影响而发生突变,并重现人世。人类面临空前的灾难,斯蒂芬成为了这场灾难的见证者……' r3 L9 w* A# Y; ?7 M
本片按照香山滋的科幻小说改编,该版本为美国重新剪辑并在国内公映的版本。
+ w" h2 [  n4 T
. ~) v6 V4 d5 [9 b) R/ P% b
  1. Video
    ) b' B7 d6 r7 L' W" `+ L& u
  2. ID                                       : 1
    8 R* B: ^% h" `! h: |* {, U* @( J
  3. Format                                   : AVC: Q% ]* I6 G# {% x% }0 R
  4. Format/Info                              : Advanced Video Codec
    - B# W6 {$ b* @, [
  5. Format profile                           : High@L4% D6 s$ j& G* T) t6 d
  6. Format settings                          : CABAC / 5 Ref Frames
    2 d  q7 y% B/ v. y8 a) }1 S
  7. Format settings, CABAC                   : Yes: Z* i/ H# s& u0 _- y
  8. Format settings, Reference frames        : 5 frames" O# q8 e5 Z2 x, H/ P# h  Q
  9. Codec ID                                 : V_MPEG4/ISO/AVC) \) q( @9 b' b- o& L
  10. Duration                                 : 1 h 21 min) `2 t, y" E+ z/ L/ M, c: s$ \! G
  11. Bit rate                                 : 7 216 kb/s3 p' l+ |, l! C+ ?
  12. Width                                    : 960 pixels
    ' D  L/ @" j4 ?' q
  13. Height                                   : 720 pixels
    & b2 P' o3 p" z: T/ e
  14. Display aspect ratio                     : 4:31 l  R' S1 Z) L
  15. Frame rate mode                          : Constant
    1 L* X4 e' }% D6 a
  16. Frame rate                               : 23.976 FPS( _1 `- K) @2 {  f0 m
  17. Color space                              : YUV# e; R$ o# y/ s. D0 r" `
  18. Chroma subsampling                       : 4:2:0  {* m5 q/ M" A; ?3 v
  19. Bit depth                                : 8 bits
    ) a' x8 a/ V& h) Q. Q7 z$ @
  20. Scan type                                : Progressive: I# m, Z3 V3 Q" E! r
  21. Bits/(Pixel*Frame)                       : 0.4359 e/ Z1 [7 u, E
  22. Stream size                              : 4.08 GiB (93%)2 R% G& W1 ~- S( E3 T3 w
  23. Writing library                          : x264 core 158 r2984 3759fcb
    % |& T. z; H0 Z
  24. Encoding settings                        : cabac=1 / ref=5 / deblock=1:0:0 / analyse=0x3:0x133 / me=umh / subme=7 / psy=1 / psy_rd=1.00:0.00 / mixed_ref=1 / me_range=16 / chroma_me=1 / trellis=2 / 8x8dct=1 / cqm=0 / deadzone=21,11 / fast_pskip=0 / chroma_qp_offset=-2 / threads=12 / lookahead_threads=2 / sliced_threads=0 / nr=0 / decimate=1 / interlaced=0 / bluray_compat=0 / constrained_intra=0 / bframes=3 / b_pyramid=2 / b_adapt=1 / b_bias=0 / direct=3 / weightb=1 / open_gop=0 / weightp=2 / keyint=250 / keyint_min=23 / scenecut=40 / intra_refresh=0 / rc_lookahead=50 / rc=2pass / mbtree=1 / bitrate=7216 / ratetol=1.0 / qcomp=0.60 / qpmin=0 / qpmax=69 / qpstep=4 / cplxblur=20.0 / qblur=0.5 / ip_ratio=1.40 / aq=1:1.00
    6 G# b$ h; u; d2 z) }$ N0 |% N
  25. Language                                 : Japanese# }8 t' M( U0 c% n! @- i
  26. Default                                  : Yes
    ) C% s+ S' w, p8 R. c
  27. Forced                                   : No
    0 j- Y6 s7 ?8 r( V/ h
  28. ; O! d5 K: ~, }9 X' Y
  29. Audio8 z; [4 z: S& s) I6 r
  30. ID                                       : 2
      f0 O7 {) h  G0 P% K
  31. Format                                   : FLAC3 Y6 p/ G3 l8 u
  32. Format/Info                              : Free Lossless Audio Codec
    + i6 o/ V( F+ f; G. R) m
  33. Codec ID                                 : A_FLAC
    " Q) T9 ~! D% F9 X8 H) M
  34. Duration                                 : 1 h 21 min
    8 o4 M) I  e; {
  35. Bit rate mode                            : Variable
    : j( J. j& y$ z4 `- X& ?
  36. Bit rate                                 : 511 kb/s
    $ L& ]4 o3 f5 ~
  37. Channel(s)                               : 1 channel! W3 V# ]% h' c( M' j
  38. Channel layout                           : C
    0 o' y' R  m" U  B$ I  z$ n  y
  39. Sampling rate                            : 48.0 kHz
    , g3 P3 [+ [7 S& G% J. t
  40. Frame rate                               : 11.719 FPS (4096 SPF)
    7 }, Y% J- b) M1 ?! x5 p3 Y
  41. Bit depth                                : 24 bits
      c; P/ m# N9 C9 W7 O: E0 ?9 {
  42. Compression mode                         : Lossless% `0 ]2 I1 Q) o3 j4 H% x
  43. Stream size                              : 296 MiB (7%)
    & W' d1 I3 B! B' a# c- a1 V  R
  44. Writing library                          : libFLAC 1.3.2 (UTC 2017-01-01)+ d1 h# w1 l, O0 o) J+ A; D2 o: x
  45. Language                                 : Japanese
    + p5 j, h* M& l/ e3 W# {. i/ S
  46. Default                                  : Yes. I# y6 J, k4 e/ \  d5 v% P
  47. Forced                                   : No0 T2 Q- q& d0 Q9 i& M7 f

  48. & h9 l% u" n; p' i! K
  49. Text  d/ u2 j+ p& L" }$ z1 i% d. Y* l' M
  50. ID                                       : 3
    - z5 M$ Y' p& J# E% p
  51. Format                                   : UTF-8+ x/ [$ U) D0 k2 P& Q
  52. Codec ID                                 : S_TEXT/UTF8
    8 B1 {! o+ B4 U$ p
  53. Codec ID/Info                            : UTF-8 Plain Text# R- Q; v5 l7 B, N$ ~8 y+ c
  54. Duration                                 : 1 h 20 min
    0 I3 Z1 o  ~  R! c8 v6 d
  55. Bit rate                                 : 42 b/s  x3 N# A0 `4 m6 {2 D3 ^/ ~
  56. Count of elements                        : 665! n% D( [4 K1 R- `2 ^$ N
  57. Stream size                              : 24.7 KiB (0%)
    ) R. B$ f3 [6 Z, h
  58. Language                                 : English
    1 `/ d; W- W& i( D7 \' T
  59. Default                                  : Yes9 d: l8 {- b( r
  60. Forced                                   : No
    1 E) W& M+ l8 e# X, d

  61. * B2 O- B" V# j& y# h  P2 M& q
  62. Menu% e5 s+ e( m  v) c* J/ d
  63. 00:00:00.000                             : en:Chapter 01
    . B* q  G3 A- s0 R% V
  64. 00:05:12.770                             : en:Chapter 02  e8 k" h: D6 E$ h
  65. 00:06:40.316                             : en:Chapter 03, b$ s1 E8 Q& e' z) R2 I6 y
  66. 00:09:25.523                             : en:Chapter 041 \- B% I- F) u% w9 e. G
  67. 00:11:53.003                             : en:Chapter 05
    3 E; u+ [! w" n" R+ ?
  68. 00:14:04.218                             : en:Chapter 069 K3 F3 f9 |9 w4 D6 W
  69. 00:18:20.474                             : en:Chapter 075 l/ y/ L1 d* S, K
  70. 00:21:28.829                             : en:Chapter 08& U5 s4 i" C$ }8 k' o9 O
  71. 00:25:18.558                             : en:Chapter 09
    3 i; u2 I5 T% D& z% K$ }! t) g
  72. 00:30:07.013                             : en:Chapter 10' j! g# K: y- j+ b: z7 ^
  73. 00:32:08.468                             : en:Chapter 11
    & \8 n, x2 g+ O$ y$ I3 r8 f* F$ S( N0 l
  74. 00:33:57.660                             : en:Chapter 12
    1 ]) H: s; P% R; f: k
  75. 00:37:40.925                             : en:Chapter 13
    ; t+ e* e' ]% H- {) }
  76. 00:41:21.145                             : en:Chapter 142 d  h5 X) O  Y; @8 g/ m
  77. 00:45:42.030                             : en:Chapter 15
    0 U0 d9 X$ Q7 e- r; V: U6 ]
  78. 00:48:28.196                             : en:Chapter 16
    & b% |+ N6 k# a0 A3 D
  79. 00:53:57.859                             : en:Chapter 17" T  e/ [, p" l( z- M* T
  80. 00:59:10.004                             : en:Chapter 18" w; p+ D% v; t- |
  81. 01:01:24.764                             : en:Chapter 19
    2 a" C; Q3 E" e! A
  82. 01:04:58.561                             : en:Chapter 20
    - D, ?: _1 Z( i
  83. 01:11:07.638                             : en:Chapter 21
复制代码
/ U! u5 ^: \( G* X
怪兽王哥斯拉 Godzilla.King.of.the.Monsters.1956.Criterion.720p.BluRay.x264-JRP 4.38GB-2.png
0 N7 k6 _! c7 W
2 ^. h0 Q! Z' `3 }9 m. z& A; i; B: M, Z# k  I. ?4 T- t
, q. M7 K$ y4 \* q0 D9 R
* g! g+ h5 E& Q1 J# V6 P$ w
. ~$ y5 T2 \& R3 e' [' S4 E
( z1 r8 L0 k! T

5 [( T" X3 S# \/ @7 h! s
VIP会员免费任意下载本站所有资源!---点击开通
回复

使用道具 举报

级别:一线明星 Lv.8

注册时间
2019-4-24
最后登录
2019-12-10
听众
14
收听
0
主题
0
蓝光币
214 枚
贡献
0 点
发表于 7 天前 | 显示全部楼层
楼主发贴辛苦了,谢谢楼主分享!我觉得中国高清电影网是注册对了!
VIP会员免费任意下载本站所有资源!---点击开通
回复

使用道具 举报

懒得打字嘛,点击右侧快捷回复 【右侧内容,后台自定义】
您需要登录后才可以回帖 登录 | 立即注册

本版积分规则

QQ|Archiver|手机版|小黑屋| 中国高清网 |网站地图

GMT+8, 2019-12-10 16:46 , Processed in 0.270341 second(s), 37 queries .

Powered by HDchina X3.4

Copyright 2017-2019©HDchina.All right reserved

返回顶部 联系我们