查看: 39|回复: 2

[剧情片] 夜莺/夜莺的哭声 The.Nightingale.2018.720p.BluRay.X264-AMIABLE 5.47GB

[复制链接]

 成长值: 3410

级别:资源管理组

注册时间
2017-10-20
最后登录
2019-12-10
听众
1
收听
0
主题
88361
蓝光币
69834 枚
贡献
12723 点
发表于 2019-12-2 20:31:16 | 显示全部楼层 |阅读模式
夜莺/夜莺的哭声 The.Nightingale.2018.720p.BluRay.X264-AMIABLE 5.47GB-1.png
9 Y! c. C! V+ }# c: x& R
$ N. r# E+ x1 F) m, s译  名 夜莺 / 夜莺的哭声(台) / 夜莺的抽泣+ j3 g  e. W: e( W
片  名 The Nightingale
7 I5 H) d3 P; J1 G8 A年  代 2018
/ h# N( l9 U! |, ]/ M产  地 澳大利亚 / 加拿大 / 美国2 J# H3 U, O: |# Q2 G/ T
类  别 剧情 / 惊悚 / 冒险0 D# [  K5 u+ i% `
语  言 英语) E2 p8 g+ v3 x6 j, k3 J
上映日期 2018-09-06(威尼斯电影节) / 2019-08-02(美国)
# J6 c3 C& v' ^' ]3 P/ vIMDb评分  7.3/10 from 1715 users
: m- f+ M# J8 M9 x! YIMDb链接  https://www.imdb.com/title/tt4068576' e0 `# C% B6 y+ q7 D0 }, F
豆瓣评分 6.0/10 from 89 users: o1 d" _/ k6 F' R3 H% j
豆瓣链接 https://movie.douban.com/subject/26389173/
2 G3 m# o, |6 `片  长 136分钟& @# P1 Z) I$ w) [7 @
导  演 詹妮弗·肯特 Jennifer Kent
& s# L2 g4 {; L$ Y  }8 L编  剧 詹妮弗·肯特 Jennifer Kent
' \2 j( @- v2 P2 R, y: b  A9 V& E主  演 山姆·克拉弗林 Sam Claflin+ ]: g! y% l. [& d
       艾斯琳·弗兰乔茜 Aisling Franciosi
+ K! M0 y! J4 E2 d, x0 G. j       达蒙·海瑞曼 Damon Herriman
- g7 {  y$ ~! ?' Y4 v# E       伊文·莱斯利 Ewen Leslie: X$ X" [5 _* ~: m( }
       查理·肖特韦尔 Charlie Shotwell
& \$ ~- o1 i- g       纳撒尼尔·迪安 Nathaniel Dean
5 a! {6 P+ S5 F/ h" Y       哈利·格林伍德 Harry Greenwood
- a9 `: @+ Z+ g       马修·桑德兰 Matthew Sunderland7 y4 Q. ?# o% s0 f* Y! C9 f* X* L8 C
       贝卡利·加纳巴尔 Baykali Ganambarr& H# ~$ e7 i& ], N" Y
       Sam Smith4 F" A+ D6 u( d$ J6 s  M
       Michael Sheasby
' r. g  _# l( x, a5 {# b: l4 r$ I( h  W
7 }6 N! H4 r, g+ n3 \* w# W' ~, \  E
标  签 澳大利亚 | 2018 | 剧情 | 澳大利亚电影 | 悬疑 | Sam | 可骇 | 2018威尼斯3 g( O1 e2 f2 R  i# u! V
! U3 z& v6 o, w0 B9 S
简  介  - w/ _8 e- F* U  K+ K$ f" X1 d
' d( {; {' P/ @8 y( S
  影片获得威尼斯电影节评审团出格奖和新锐演员奖。报告1920年月塔斯马尼亚岛的一位21岁爱尔兰犯人克莱尔被判7年徒刑,她很是渴望摆脱凌虐她的仆人霍金斯中尉,尔后者拒绝开释克莱尔。克莱尔的丈夫艾丹停止了报复,而中尉和他的好友们是以对她犯下了可怕的罪行。, p3 t: l/ F' D
  由于没法从英国政府获得公道的审判,克莱尔决议追捕霍金斯,霍金斯却忽然分开岗位,想获得北部的一个上尉职位。她只能乞助于年轻的土著猎人比利,比利不情愿地率领她穿过坎坷的荒原,去寻觅霍金斯。
: q2 i  O0 @& G" m$ i2 L6 [6 T7 w: G3 V8 ^! a# U6 P" R2 k, J
获奖情况  6 I6 }: _. }  x/ F- D& t3 C
4 e  x% X& E( t0 X; X
  第75届威尼斯电影节(2018)0 b9 I& P9 c; Q
  主比赛单元 金狮奖 (提名) 詹妮弗·肯特
; E2 e5 z/ F. B  评审团出格奖 詹妮弗·肯特; n. s7 A; f: D+ m$ q
  马塞洛·马斯托依安尼奖(新锐演员奖) 贝卡利·加纳巴尔
4 {3 C9 \( M- M6 z& n2 b7 s- o, E, @3 b1 Q4 A: e0 e
  第29届哥谭自力电影奖(2019)1 ]5 ^6 b$ d6 \& D
  年度冲破演员(提名) 艾斯琳·弗兰乔茜
7 |  i0 \3 r4 C0 g8 H5 m: L
  1. Video* b! {2 y1 g4 {' j/ Q  h$ F
  2. ID                                       : 1% v" |$ N+ ?" c+ M  i* H& q: W- L
  3. Format                                   : AVC/ `8 n) Q! f* a' Z  i  z
  4. Format/Info                              : Advanced Video Codec- m# ?4 E* ?( f' j* v9 a: ]
  5. Format profile                           : High@L4
    % s0 u7 N8 q  W, w: h: s% }
  6. Format settings                          : CABAC / 5 Ref Frames9 d: Z  k# P/ a
  7. Format settings, CABAC                   : Yes
    " Z. n0 J$ O% G+ I6 d- _
  8. Format settings, Reference frames        : 5 frames
    9 t7 N9 z+ a3 U' S; I) G
  9. Codec ID                                 : V_MPEG4/ISO/AVC
    " Q" v* N# {' g1 I8 F( e
  10. Duration                                 : 2 h 16 min; R' w) D; c" E* I" y: \
  11. Bit rate                                 : 4 230 kb/s
    $ `6 ^2 b5 E/ ^; [
  12. Width                                    : 992 pixels! U1 a7 k% K3 R: R" l2 D
  13. Height                                   : 720 pixels0 J  t- r8 x9 V, Y7 Z/ m
  14. Display aspect ratio                     : 1.3784 V( O# e: T7 f: v. C
  15. Frame rate mode                          : Constant
    ! X/ p" H" ]& ^4 [$ N( p( m
  16. Frame rate                               : 23.976 (24000/1001) FPS; ]* X5 \1 s7 e
  17. Color space                              : YUV
    6 {3 l" b, k0 m( y1 q0 [. c3 r
  18. Chroma subsampling                       : 4:2:0# a& g3 D7 h" T0 m; H" r( g+ \) _! C
  19. Bit depth                                : 8 bits% a- _1 C8 p" U# T3 J& L- E5 d
  20. Scan type                                : Progressive; ?) M4 I- E5 N2 e; T' H9 w( j
  21. Bits/(Pixel*Frame)                       : 0.247
    ; T- i8 h$ w% P, I4 ?
  22. Stream size                              : 3.92 GiB (72%)
    5 C9 R1 [$ Z) g8 U" l7 ]- m' N
  23. Writing library                          : x264 core 158 r2988 7817004
    + K1 r9 t; `* b% K
  24. Encoding settings                        : cabac=1 / ref=5 / deblock=1:-3:-3 / analyse=0x3:0x113 / me=umh / subme=8 / psy=1 / psy_rd=1.00:0.00 / mixed_ref=1 / me_range=24 / chroma_me=1 / trellis=2 / 8x8dct=1 / cqm=0 / deadzone=21,11 / fast_pskip=1 / chroma_qp_offset=-2 / threads=22 / lookahead_threads=3 / sliced_threads=0 / nr=0 / decimate=1 / interlaced=0 / bluray_compat=0 / constrained_intra=0 / bframes=3 / b_pyramid=2 / b_adapt=2 / b_bias=0 / direct=3 / weightb=1 / open_gop=0 / weightp=2 / keyint=240 / keyint_min=24 / scenecut=40 / intra_refresh=0 / rc_lookahead=50 / rc=2pass / mbtree=1 / bitrate=4230 / ratetol=1.0 / qcomp=0.60 / qpmin=0 / qpmax=69 / qpstep=4 / cplxblur=20.0 / qblur=0.5 / ip_ratio=1.40 / aq=3:0.704 A. M: J; O) P1 l1 `) y
  25. Default                                  : Yes( i' u% C$ i; g' e
  26. Forced                                   : No
    - |/ B& D/ b6 O; V# e, L
  27. Statistics Tags Issue                    : no_variable_data 1970-01-01 00:00:00 / no_variable_data 2010-02-22 21:41:29
    ( R: k8 h8 Z* ~/ O: O4 P
  28. FromStats_BitRate                        : 4228327
    6 `$ q$ ^: L+ w, V& t* C# A+ A
  29. FromStats_Duration                       : 02:16:16.293000000
    3 ?7 i* I' a) U! E* C
  30. FromStats_FrameCount                     : 1960353 b3 _( k% j6 `! @( {8 L% C
  31. FromStats_StreamSize                     : 4321505490
    ' F1 V$ g3 [' t' q& ]

  32. $ m9 A/ _' Q) G4 Q1 d+ E5 d
  33. Audio6 A) }  E& O$ l: I
  34. ID                                       : 2
    % K6 S& o0 v2 X0 z. _% k1 h
  35. Format                                   : DTS
    . w! C1 Y& G$ J7 }6 C2 m
  36. Format/Info                              : Digital Theater Systems
    . h( v5 K/ g' A
  37. Codec ID                                 : A_DTS
    6 g: W, U, u1 x7 w- J4 e
  38. Duration                                 : 2 h 16 min7 y' u' k( s! I) a
  39. Bit rate mode                            : Constant4 {. ?/ S; w4 e6 x5 ]2 U; w
  40. Bit rate                                 : 1 509 kb/s
    & r* u0 _! ]3 B
  41. Channel(s)                               : 6 channels
    1 }& h+ E* w2 G! B
  42. Channel layout                           : C L R Ls Rs LFE
    ! w0 ^2 ?) ?- [: b
  43. Sampling rate                            : 48.0 kHz2 M+ @1 G! E$ K9 z6 C; @
  44. Frame rate                               : 93.750 FPS (512 SPF)  M) n" h  T- Y7 k
  45. Bit depth                                : 24 bits
    6 D+ K% V6 X1 w' J
  46. Compression mode                         : Lossy
      G* p% D, E) S# I  K
  47. Stream size                              : 1.44 GiB (26%)- I; U& c% f3 R  y
  48. Language                                 : English
    . z. Y9 E' J: h: m- Q% b1 c9 N
  49. Default                                  : Yes
    & ^1 K" U1 N, O; F7 E, ^# {
  50. Forced                                   : No4 C. L* i" X5 ~$ j+ [# u( `, F
  51. Statistics Tags Issue                    : no_variable_data 1970-01-01 00:00:00 / no_variable_data 2010-02-22 21:41:297 X' x! s( v% I5 K& d  x
  52. FromStats_BitRate                        : 1509000. L. K5 C: q# X! `
  53. FromStats_Duration                       : 02:16:16.288000000
    9 B# E5 d# J6 J: ~
  54. FromStats_FrameCount                     : 7665277 h& C* X$ m& g; z" |9 s3 G! w
  55. FromStats_StreamSize                     : 15422523247 M  ~" a" Y  L0 |; T0 C* N* k7 Z6 i. t

  56. 9 g7 b! s) b5 i! x( L  e! X* {& r
  57. Text #1! c) K, r) O0 Q
  58. ID                                       : 3* Z" ?4 i0 f, `
  59. Format                                   : UTF-8# L/ Q& @. c, p" `0 X
  60. Codec ID                                 : S_TEXT/UTF8
    . F3 s% f6 {' Q7 Z3 O
  61. Codec ID/Info                            : UTF-8 Plain Text
    ! K7 r0 Z' \4 ?2 ^. I( w
  62. Language                                 : English
    ! R" }( d( C: Y5 c- |
  63. Default                                  : No, V6 ~/ _/ {' Y
  64. Forced                                   : No
    ' y; x. \+ o6 z8 d
  65. Statistics Tags Issue                    : no_variable_data 1970-01-01 00:00:00 / no_variable_data 2010-02-22 21:41:29
    : o' d+ X9 X# i* R5 s3 H1 K* Y
  66. FromStats_BitRate                        : 34) F4 R6 x* C4 K8 v# k. P
  67. FromStats_Duration                       : 02:10:32.825000000, m9 w$ d! q  D* E, K
  68. FromStats_FrameCount                     : 1243
      i/ T) u/ ^$ q( n) H6 V* [/ e; B
  69. FromStats_StreamSize                     : 33997
    . V3 d3 \8 j% ]* V) w, i5 G
  70. ( Y$ _. _6 U- d( ~
  71. Text #27 i) g: A6 S# U7 s& Q
  72. ID                                       : 4
    ! _0 K2 D6 L/ G! l0 [3 C) O
  73. Format                                   : UTF-8
    . s8 P+ o3 O+ m# q* ]0 A
  74. Codec ID                                 : S_TEXT/UTF81 Z5 o# {8 N# T0 D* U6 [- K) ]+ Z8 V
  75. Codec ID/Info                            : UTF-8 Plain Text& Q8 y/ u3 n  e) g
  76. Title                                    : SDH
    * `5 P- `6 _  q
  77. Language                                 : English
    : G( j. j/ x9 a: f. T: N/ _1 |" v
  78. Default                                  : No/ r" k/ d5 o; J( O  K; J
  79. Forced                                   : No
      Y' }9 T8 p, `- z: U, Z! @6 I
  80. Statistics Tags Issue                    : no_variable_data 1970-01-01 00:00:00 / no_variable_data 2010-02-22 21:41:29
    $ Y$ F4 e0 {- P4 @
  81. FromStats_BitRate                        : 38
    8 A2 Y$ N/ d  ~4 [$ }! ^' H$ v
  82. FromStats_Duration                       : 02:10:50.134000000
    , b. W% E1 j5 m1 B
  83. FromStats_FrameCount                     : 1430
    / w! b! Z" T; _; F
  84. FromStats_StreamSize                     : 38060' K( P+ Q1 V2 v2 n: w

  85. $ _" X6 \+ |$ S/ v; i6 M& B
  86. Menu6 k; P7 c' C* ~, v8 K
  87. 00:00:00.000                             : en:Chapter 01
    3 C* Z) ]- s( u8 u; o  q
  88. 00:12:59.654                             : en:Chapter 02& E) t- Y/ s0 _- p
  89. 00:30:09.891                             : en:Chapter 03
    , k/ v8 ^8 s+ y7 ?
  90. 00:43:30.316                             : en:Chapter 04
    8 w, E2 _$ O. P9 b+ W) b" Q( W! W
  91. 00:51:30.170                             : en:Chapter 05
    % W$ |1 I% _) E$ K
  92. 01:00:02.140                             : en:Chapter 06' z  i2 k) o8 Z5 C9 u) n
  93. 01:15:03.874                             : en:Chapter 07
    9 Z% b# b5 W, l0 U3 V! F. f" @
  94. 01:23:14.323                             : en:Chapter 088 F+ E- k( O* |7 _
  95. 01:31:28.274                             : en:Chapter 09
    7 z" ^. }5 |* F4 r( I1 i
  96. 01:45:19.855                             : en:Chapter 10
    ! @7 ~4 p3 I& |& k- Y1 c
  97. 01:58:33.315                             : en:Chapter 11
    9 h9 G7 `* j: N$ w. s* G' j  P/ ~) {% q
  98. 02:11:44.271                             : en:Chapter 12
复制代码
0 |8 D' p& U9 Y, E
夜莺/夜莺的哭声 The.Nightingale.2018.720p.BluRay.X264-AMIABLE 5.47GB-2.png
8 j, K6 ~- i- j" r- v. X& s  P- `! I5 s; i

$ m/ Z- u0 d+ }4 a
, b7 b$ E; q* h/ O. ^1 m+ g/ l* e; Q% v- S* b
4 r4 E/ I, m, `: h* a6 N

* `! I. B8 b& h: r$ D( y$ C3 c. W% F( ^$ {
VIP会员免费任意下载本站所有资源!---点击开通
回复

使用道具 举报

级别:一线明星 Lv.8

注册时间
2019-4-24
最后登录
2019-12-10
听众
14
收听
0
主题
0
蓝光币
214 枚
贡献
0 点
发表于 7 天前 | 显示全部楼层
楼主发贴辛苦了,谢谢楼主分享!我觉得中国高清电影网是注册对了!
VIP会员免费任意下载本站所有资源!---点击开通
回复

使用道具 举报

级别:初级观众 Lv.1

注册时间
2019-12-2
最后登录
2019-12-9
听众
1
收听
0
主题
0
蓝光币
12 枚
贡献
0 点
发表于 4 天前 | 显示全部楼层
谢谢楼主分享
VIP会员免费任意下载本站所有资源!---点击开通
回复

使用道具 举报

懒得打字嘛,点击右侧快捷回复 【右侧内容,后台自定义】
您需要登录后才可以回帖 登录 | 立即注册

本版积分规则

QQ|Archiver|手机版|小黑屋| 中国高清网 |网站地图

GMT+8, 2019-12-10 16:45 , Processed in 0.431011 second(s), 37 queries .

Powered by HDchina X3.4

Copyright 2017-2019©HDchina.All right reserved

返回顶部 联系我们