查看: 80|回复: 5

[惊悚片] 幸运日 Lucky.Day.2019.720p.BluRay.x264-ROVERS 4.38GB

[复制链接]

 成长值: 3410

级别:资源管理组

注册时间
2017-10-20
最后登录
2019-12-10
听众
1
收听
0
主题
88361
蓝光币
69834 枚
贡献
12723 点
发表于 2019-11-30 21:08:24 | 显示全部楼层 |阅读模式
荣幸日 Lucky.Day.2019.720p.BluRay.x264-ROVERS 4.38GB-1.png
) _3 G8 Y8 O7 x. f8 g
6 V, Q6 f' y2 d0 R3 J0 H4 ~3 ^8 A◎译  名 荣幸日" y' X! c9 p6 O
◎片  名 Lucky Day+ u8 p! [% t! x8 `' s
◎年  代 2018, x+ |- f# G1 P+ \; W! i
◎产  地 加拿大 / 法国
8 x; N2 b  {/ z0 ^& U◎类  别 惊悚9 x; V4 y% g3 ?& @: I
◎语  言 英语 / 法语
% s' y0 Z7 v: H6 ?5 E/ ~◎IMDb评分 6.6/10 from 69 users/ S6 z+ m) E6 O8 Q7 D- u/ q
◎IMDb链接 http://www.imdb.com/title/tt7248248
2 a% S% z" [1 _2 j" X: q◎豆瓣评分 0/10 from 0 users
9 u* w) F7 j. ]7 c. J& h◎豆瓣链接 https://movie.douban.com/subject/27150264/5 }# ]1 ?( J7 R1 x
◎导  演 罗杰·阿夫瑞 Roger Avary3 u0 L& l7 b9 z( t
◎编  剧 罗杰·阿夫瑞 Roger Avary
9 l; ~; o! w/ t6 c  e* _/ p◎主  演 妮娜·杜波夫 Nina Dobrev8 r) W( \' K: f/ T
      克里斯平·格洛弗 Crispin Glover
" C( V4 E3 b: y$ G      卢克·布雷西 Luke Bracey
& K' E" K0 I8 Y      小克利夫顿·克林斯 Clifton Collins Jr.
# U- C- s! P6 b' f& D      科勒·班尼特 Clé Bennett3 t6 c- j: ^' X- w. k( ^4 P
      大卫·休莱特 David Hewlett
* S! y) m$ q7 B: a& T      马克·达卡斯考斯 Mark Dacascos0 K% ~- ~4 l5 l* h; F
      罗伯托·坎帕内利亚 Roberto Campanella  q* N; x# K" j9 {# R. l
      托莫·希思黎 Tomer Sisley
, Y6 J4 N  V2 G* v/ H      娜迪亚·法尔丝 Nadia Farès
3 K0 p5 C5 X4 k9 ~      何超仪 Josie Ho
8 o& c9 J5 J  k      Darrin Baker
, h) G) v! o. i; a" M  ]' d/ _3 |
$ D* J# H" ^' G0 j: c$ f" {3 }, H: d$ I% q2 n4 C
◎标  签 法国电影 | 可骇 | 音 | 电影 | 搞笑 | 行动 | Nina% J0 `8 F7 F- K
1 S0 f  P2 E, G3 o+ Q- j
◎简  介
/ _$ z; q0 J3 ?6 b# k, F: ~2 O7 F3 T; D8 ]2 q* M
  故事聚焦一位有前科者,他被克里斯平·格洛弗饰演的变态杀手所追踪。
7 a& {" ^1 r8 n6 e, I* p
  1. Video) M3 Y; P4 q. A* W3 F
  2. ID : 1: S: m* c1 c. v) @7 W- i
  3. Format : AVC5 p3 Y& A- f7 @
  4. Format/Info : Advanced Video Codec
    ' \7 o8 D, w) Q1 F5 K
  5. Format profile : [email]High@L4.1[/email]6 |8 h/ u8 Y/ S  ?
  6. Format settings : CABAC / 5 Ref Frames
    6 g! I1 U3 f3 T. l5 W3 j0 F
  7. Format settings, CABAC : Yes
    ) c9 Q. l; f6 K" D- a) k
  8. Format settings, Reference frames : 5 frames5 g5 C# }" N( ^9 a3 w4 y" f' W
  9. Codec ID : V_MPEG4/ISO/AVC: [+ E# }3 w4 J& [2 y. Y% t
  10. Duration : 1 h 39 min" ?, S( W" b; Q, N7 q: A
  11. Bit rate : 4 794 kb/s
    7 ^3 T; N2 g# E, f+ l3 \
  12. Width : 1 280 pixels& B# G$ \5 t7 z) N: P
  13. Height : 536 pixels. f7 m+ H! P: o- l
  14. Display aspect ratio : 2.40:1
    2 ]  v- c' U- w4 \5 d
  15. Frame rate mode : Constant" E& E$ \; u  e1 L) N+ {
  16. Frame rate : 23.976 (24000/1001) FPS" N9 u! z! E2 |2 @0 X
  17. Color space : YUV
    * ?1 B# h. c* R
  18. Chroma subsampling : 4:2:0& A, C, r4 p; h" Z6 {# i) x
  19. Bit depth : 8 bits
    & R% X/ G& G4 g+ g9 {$ U) E
  20. Scan type : Progressive0 J* a2 C. x" e; H+ c6 t
  21. Bits/(Pixel*Frame) : 0.291
    ; G, m6 v  g# {  ]6 _' C) v
  22. Stream size : 3.32 GiB (76%)
    4 ]1 z- g) [' g+ e/ G" p# o3 N
  23. Writing library : x264 core 158 r2988 7817004
    3 o5 ^- g2 N. }4 s' m7 L' G
  24. Encoding settings : cabac=1 / ref=5 / deblock=1:-3:-3 / analyse=0x3:0x113 / me=umh / subme=8 / psy=1 / psy_rd=1.00:0.00 / mixed_ref=1 / me_range=16 / chroma_me=1 / trellis=1 / 8x8dct=1 / cqm=0 / deadzone=21,11 / fast_pskip=1 / chroma_qp_offset=-2 / threads=17 / lookahead_threads=2 / sliced_threads=0 / nr=0 / decimate=1 / interlaced=0 / bluray_compat=0 / constrained_intra=0 / bframes=3 / b_pyramid=2 / b_adapt=1 / b_bias=0 / direct=3 / weightb=1 / open_gop=0 / weightp=2 / keyint=250 / keyint_min=23 / scenecut=40 / intra_refresh=0 / rc_lookahead=50 / rc=2pass / mbtree=1 / bitrate=4794 / ratetol=1.0 / qcomp=0.60 / qpmin=0 / qpmax=69 / qpstep=4 / cplxblur=20.0 / qblur=0.5 / ip_ratio=1.40 / aq=1:1.00
    % h" W" b+ E  a& f" P" g
  25. Language : English
    + l3 K; \: a) B& k: J
  26. Default : Yes: B4 X6 I; Z2 f
  27. Forced : No
    " S5 W" _9 y5 G9 r& A) R

  28. 8 R1 y( }0 a6 R' _% v) V
  29. Audio- k* h# V& S& C" a+ o
  30. ID : 2% Q& f' C# g  U" Z4 V1 k" A- q
  31. Format : DTS
    - f& o6 \5 q4 j( h2 ~
  32. Format/Info : Digital Theater Systems- j0 s8 g0 V" u: p
  33. Codec ID : A_DTS
    " I2 J$ v2 @  _- X* _2 K
  34. Duration : 1 h 39 min
    ! [5 V8 Y8 Y# P' U( u2 o7 k
  35. Bit rate mode : Constant; X: m3 p& L& s/ Y/ n
  36. Bit rate : 1 509 kb/s
    4 f3 h' w0 ]* J
  37. Channel(s) : 6 channels0 p2 v. M  @% {7 r1 _
  38. Channel layout : C L R Ls Rs LFE1 m+ _- ?" ]0 G, J9 e
  39. Sampling rate : 48.0 kHz
    6 P+ m/ w- A, X  D9 `
  40. Frame rate : 93.750 FPS (512 SPF)
    : X. [' y) f4 _) k9 L
  41. Bit depth : 24 bits
    ! W3 {9 `; j: _2 e5 A  t0 F  ~
  42. Compression mode : Lossy6 W0 |1 a( U& A# u0 k+ {  v. }3 {
  43. Stream size : 1.05 GiB (24%)( R+ s! d4 |' L6 ^+ X5 b* n
  44. Language : English% |- i% t3 X) i+ w
  45. Default : Yes* t( j  l  E' D; ~
  46. Forced : No
    1 J$ t4 L1 I8 g; t9 @

  47. 5 ~9 ?. P8 P/ A$ {" ?; e/ ?
  48. Menu& y* W& r- X/ w) \% t
  49. 00:00:00.000 : en:00:00:00.0002 P) T# w$ g' M; P" T2 W! r
  50. 00:06:02.070 : en:00:06:02.070
    1 g( i1 ~- R/ m8 v
  51. 00:10:49.649 : en:00:10:49.649* t; m3 x' X4 A) t* C
  52. 00:18:16.846 : en:00:18:16.846! Q6 e& q7 y7 L, O/ i  f. `7 y5 C
  53. 00:23:41.837 : en:00:23:41.8373 i- T3 ]3 V" e# C/ B- D
  54. 00:30:44.551 : en:00:30:44.551
    ' e& W1 z) j3 j# W8 r% _
  55. 00:37:38.131 : en:00:37:38.131- V# ?4 n1 ]( _0 w
  56. 00:43:59.554 : en:00:43:59.554
    * N' }9 g0 o3 d2 Q! t
  57. 00:48:35.412 : en:00:48:35.412' B1 z! j' I, P
  58. 00:53:35.337 : en:00:53:35.337! f" }% t; D3 w6 f; D6 J4 ]
  59. 01:00:05.519 : en:01:00:05.519: v  w4 t$ N) Y+ W& C
  60. 01:07:10.443 : en:01:07:10.4437 V5 U8 c: T! b1 e/ d) `2 o
  61. 01:11:08.222 : en:01:11:08.2226 w  q& s, }" Z/ Y/ _# E
  62. 01:17:25.140 : en:01:17:25.140
    + C2 H; X  a0 E! s# k
  63. 01:24:48.583 : en:01:24:48.583
    ) _' F9 F- m: k& L4 P- ~- r( x! R
  64. 01:29:50.594 : en:01:29:50.594
复制代码

5 B) w; X5 h* n, n* O( i 荣幸日 Lucky.Day.2019.720p.BluRay.x264-ROVERS 4.38GB-2.png ; I! h& S& D7 J. y6 ?: \  Q. V+ s
! e% H$ e: [7 ^8 ~' `1 {

" y- G! o4 g6 m! j
5 {" ~4 p2 ]& q/ C8 M1 n. o, E9 q) \5 ?7 X/ U5 C
8 }- b3 b4 ^' o; i0 A
VIP会员免费任意下载本站所有资源!---点击开通
回复

使用道具 举报

级别:群众演员 Lv.3

注册时间
2019-10-27
最后登录
2019-12-10
听众
1
收听
0
主题
0
蓝光币
74 枚
贡献
0 点
发表于 2019-11-30 22:08:07 | 显示全部楼层
楼主发贴辛苦了,谢谢楼主分享!我觉得中国高清电影网是注册对了!
VIP会员免费任意下载本站所有资源!---点击开通
回复

使用道具 举报

级别:普通观众 Lv.2

注册时间
2019-3-31
最后登录
2019-12-7
听众
8
收听
0
主题
0
蓝光币
25 枚
贡献
0 点
发表于 2019-11-30 23:42:45 | 显示全部楼层
看起来不错,谢谢发布。
VIP会员免费任意下载本站所有资源!---点击开通
回复

使用道具 举报

级别:荣升主角 Lv.5

注册时间
2018-2-26
最后登录
2019-12-10
听众
16
收听
0
主题
0
蓝光币
266 枚
贡献
0 点
发表于 2019-12-2 11:32:38 | 显示全部楼层
7 U3 m" Y2 ?& G
这个帖子不回对不起自己!我想我是一天也不能离开中国高清电影网
VIP会员免费任意下载本站所有资源!---点击开通
回复

使用道具 举报

级别:初级观众 Lv.1

注册时间
2019-12-2
最后登录
2019-12-2
听众
0
收听
0
主题
0
蓝光币
0 枚
贡献
0 点
发表于 2019-12-2 14:29:00 | 显示全部楼层
提示: 该帖被管理员或版主屏蔽
VIP会员免费任意下载本站所有资源!---点击开通
回复

使用道具 举报

级别:一线明星 Lv.8

注册时间
2019-4-24
最后登录
2019-12-10
听众
14
收听
0
主题
0
蓝光币
214 枚
贡献
0 点
发表于 7 天前 | 显示全部楼层
楼主发贴辛苦了,谢谢楼主分享!我觉得中国高清电影网是注册对了!
VIP会员免费任意下载本站所有资源!---点击开通
回复

使用道具 举报

懒得打字嘛,点击右侧快捷回复 【右侧内容,后台自定义】
您需要登录后才可以回帖 登录 | 立即注册

本版积分规则

QQ|Archiver|手机版|小黑屋| 中国高清网 |网站地图

GMT+8, 2019-12-10 16:39 , Processed in 0.280082 second(s), 37 queries .

Powered by HDchina X3.4

Copyright 2017-2019©HDchina.All right reserved

返回顶部 联系我们