查看: 161|回复: 4

[恐怖片] 玛丽号/玛丽的诅咒(俄罗斯) Mary.2019.1080p.BluRay.x264-AAA 6.55GB

[复制链接]

 成长值: 4210

级别:资源管理组

注册时间
2017-10-20
最后登录
2020-2-28
听众
1
收听
0
主题
92951
蓝光币
105909 枚
贡献
17313 点
发表于 2019-11-16 23:48:28 | 显示全部楼层 |阅读模式
玛丽号/玛丽的诅咒(俄罗斯) Mary.2019.1080p.BluRay.x264-AAA 6.55GB-1.png

译  名 玛丽号 / 玛丽的诅咒(俄罗斯) / 鬼船玛丽号(台)
片  名 Mary
年  代 2019
产  地 美国
类  别 可骇
语  言 英语
上映日期 2019-10-11(美国)
IMDb评分  5.3/10 from 58 users
IMDb链接  http://www.imdb.com/title/tt5834854
豆瓣评分 0/10 from 0 users
豆瓣链接 https://movie.douban.com/subject/27132203/
导  演 迈克尔·戈伊 Michael Goi
编  剧 安东尼·贾斯温斯基 Anthony Jaswinski
主  演 加里·奥德曼 Gary Oldman
       艾米莉·莫迪默 Emily Mortimer
       斯戴芬妮·斯考特 Stefanie Scott
       欧文·泰格 Owen Teague
       曼努埃尔·加西亚-鲁尔福 Manuel Garcia-Rulfo
       克洛伊·佩兰 Chloe Perrin
       Claire Byrne


标  签 可骇 | 惊悚 | 灵异 | 美国 | 美国电影 | 加里·奥德曼 | 2019 | 超自然

简  介  

  欧文·蒂格(《小丑回魂》《嫡亲血缘》)加盟加里·奥德曼主演的超自然惊悚范例新片《玛丽》,Michael Goi(《美国可骇故事》《塞勒姆》)执导,《鲨滩》编剧安东尼·贾斯温斯基操刀剧本。剧情报告一个为生活尽力奋斗的家庭在拍卖会上购得一艘老船,满怀希望预备展开租船营业,却在与世隔断的外海发现了这艘船的惊悚奥秘。奥德曼饰演一家之主兼船的掌舵者,蒂格饰船主的二把手,是一位弗罗里达州的冲浪妙手。该片本月底阿拉巴马开拍。
  1. Video
  2. ID                                       : 1
  3. Format                                   : AVC
  4. Format/Info                              : Advanced Video Codec
  5. Format profile                           : High@L4
  6. Format settings                          : CABAC / 5 Ref Frames
  7. Format settings, CABAC                   : Yes
  8. Format settings, Reference frames        : 5 frames
  9. Codec ID                                 : V_MPEG4/ISO/AVC
  10. Duration                                 : 1 h 24 min
  11. Bit rate                                 : 9 604 kb/s
  12. Width                                    : 1 920 pixels
  13. Height                                   : 800 pixels
  14. Display aspect ratio                     : 2.40:1
  15. Frame rate mode                          : Constant
  16. Frame rate                               : 23.976 (24000/1001) FPS
  17. Color space                              : YUV
  18. Chroma subsampling                       : 4:2:0
  19. Bit depth                                : 8 bits
  20. Scan type                                : Progressive
  21. Bits/(Pixel*Frame)                       : 0.261
  22. Stream size                              : 5.66 GiB (86%)
  23. Title                                    : Mary.2019.1080p.BluRay.x264-AAA
  24. Writing library                          : x264 core 157 r2969 d4099dd
  25. Encoding settings                        : cabac=1 / ref=5 / deblock=1:0:0 / analyse=0x3:0x113 / me=umh / subme=8 / psy=1 / psy_rd=1.00:0.00 / mixed_ref=1 / me_range=16 / chroma_me=1 / trellis=1 / 8x8dct=1 / cqm=0 / deadzone=21,11 / fast_pskip=1 / chroma_qp_offset=-2 / threads=16 / lookahead_threads=2 / sliced_threads=0 / nr=0 / decimate=1 / interlaced=0 / bluray_compat=0 / constrained_intra=0 / bframes=3 / b_pyramid=2 / b_adapt=2 / b_bias=0 / direct=3 / weightb=1 / open_gop=0 / weightp=2 / keyint=240 / keyint_min=23 / scenecut=40 / intra_refresh=0 / rc_lookahead=50 / rc=2pass / mbtree=1 / bitrate=9604 / ratetol=1.0 / qcomp=0.60 / qpmin=0 / qpmax=69 / qpstep=4 / cplxblur=20.0 / qblur=0.5 / ip_ratio=1.40 / aq=1:1.00
  26. Language                                 : English
  27. Default                                  : Yes
  28. Forced                                   : No

  29. Audio
  30. ID                                       : 2
  31. Format                                   : DTS
  32. Format/Info                              : Digital Theater Systems
  33. Codec ID                                 : A_DTS
  34. Duration                                 : 1 h 24 min
  35. Bit rate mode                            : Constant
  36. Bit rate                                 : 1 509 kb/s
  37. Channel(s)                               : 6 channels
  38. Channel layout                           : C L R Ls Rs LFE
  39. Sampling rate                            : 48.0 kHz
  40. Frame rate                               : 93.750 FPS (512 SPF)
  41. Bit depth                                : 24 bits
  42. Compression mode                         : Lossy
  43. Stream size                              : 911 MiB (14%)
  44. Title                                    : English
  45. Language                                 : English
  46. Default                                  : Yes
  47. Forced                                   : No

  48. Menu
  49. 00:00:00.000                             : en:00:00:00.000
  50. 00:10:13.279                             : en:00:10:13.279
  51. 00:21:38.422                             : en:00:21:38.422
  52. 00:32:06.967                             : en:00:32:06.967
  53. 00:41:11.552                             : en:00:41:11.552
  54. 00:51:35.092                             : en:00:51:35.092
  55. 01:01:38.028                             : en:01:01:38.028
  56. 01:17:30.855                             : en:01:17:30.855
复制代码

玛丽号/玛丽的诅咒(俄罗斯) Mary.2019.1080p.BluRay.x264-AAA 6.55GB-2.png







回复

使用道具 举报

级别:领衔主演 Lv.6

注册时间
2018-2-26
最后登录
2020-2-28
听众
16
收听
0
主题
0
蓝光币
240 枚
贡献
0 点
发表于 2019-11-18 10:50:27 | 显示全部楼层

这个帖子不回对不起自己!我想我是一天也不能离开中国高清电影网
回复

使用道具 举报

级别:初级观众 Lv.1

注册时间
2019-11-20
最后登录
2019-12-19
听众
1
收听
0
主题
0
蓝光币
1 枚
贡献
0 点
发表于 2019-11-20 14:45:09 | 显示全部楼层
楼主发贴辛苦了,谢谢楼主分享!我觉得中国高清电影网是注册对了!
回复

使用道具 举报

 成长值: 4690

级别:尊贵的会员

注册时间
2019-2-19
最后登录
2020-2-28
听众
10
收听
0
主题
0
蓝光币
16 枚
贡献
0 点
QQ
发表于 2020-1-23 09:21:58 | 显示全部楼层

既然你诚信诚意的推荐了,那我就勉为其难的看看吧!中国高清电影网不走平凡路。
回复

使用道具 举报

级别:群众演员 Lv.3

注册时间
2020-2-4
最后登录
2020-2-28
听众
1
收听
0
主题
0
蓝光币
22 枚
贡献
0 点
发表于 2020-2-14 17:57:21 | 显示全部楼层

这东西我收了!谢谢楼主!中国高清电影网真好!
回复

使用道具 举报

懒得打字嘛,点击右侧快捷回复 【右侧内容,后台自定义】
您需要登录后才可以回帖 登录 | 立即注册

本版积分规则

Archiver|手机版|小黑屋| 中国高清网 |网站地图

GMT+8, 2020-2-28 21:56 , Processed in 0.176999 second(s), 38 queries .

Powered by HDchina X3.4

Copyright 2017-2019©HDchina.All right reserved

返回顶部 联系我们