你所知道的4K资源这里全部都有 4K电影 | 4K视频 | 4K壁纸 | 4K MV 怎么播放4K视频 | 4K电视演示片

教你玩转4K私人与家庭影院存储 NAS组装 | 黑群辉 家庭/影院Nas论坛

4K家庭影院信号源与视频设备知识 4K蓝光高清播放机 - 那个品牌好? 4K投影机论坛 | 4K电视机论坛

手把手教你搭建属于自己的家庭影院 4K家庭影院案例 | 家庭影院音频 4K家庭影院论坛

查看: 227|回复: 9

[剧情片] 关于施密特/心的方向 About.Schmidt.2002.1080p.BluRay.X264-AMIABLE 8.74GB

[复制链接]

 成长值: 1670

级别:资源管理组

注册时间
2017-10-20
最后登录
2019-6-25
听众
0
收听
0
主题
78745
蓝光币
29104 枚
贡献
3070 点
发表于 2019-6-9 23:24:45 | 显示全部楼层 |阅读模式
关于施密特/心的偏向 About.Schmidt.2002.1080p.BluRay.X264-AMIABLE 8.74GB-1.png

译  名 关于施密特 / 心的偏向 / 薯唛师长
片  名 About Schmidt
年  代 2002
产  地 美国
类  别 剧情 / 笑剧
语  言 英语
上映日期 2002-12-20
IMDb评分  7.2/10 from 117247 users
IMDb链接  http://www.imdb.com/title/tt0257360
豆瓣评分 7.9/10 from 4456 users
豆瓣链接 https://movie.douban.com/subject/1298139/
片  长 125 分钟
导  演 Alexander Payne
编  剧 Alexander Payne / Jim Taylor
主  演 Jack Nicholson
      Kathy Bates
      Hope Davis
      Dermot Mulroney


标  签 美国 | JackNicholson | 人生 | 美国电影 | 剧情 | 亲情 | 2002 | AlexanderPayne

简  介  

  66岁的施密特师长(杰克?尼科尔森 Jack Nicholson 饰)退休失业在家,无所作为的生活让他颇感无聊。天天照旧7点起床,可是陪伴他的只是无聊的灯谜游戏和使人生厌的妻子,施密特需要找点事来改变自己的生活,因而他筹算帮助一位坦桑尼亚的孤儿恩度古,并提笔给他写了第一封信。妻子的忽然离世让他的生活显得加倍冷僻,他曾至起头驰念阿谁有趣的女人,可是就在这时,他在妻子的更衣间里找到妻子和另一个汉子的情书。施密特决议单独驾车去观光,他去了很多已经生活过的地方,回忆昔时感慨很多。在一时感动亲吻一位有夫之妇以后,他渐渐的谅解了自己的妻子。女儿的婚姻比自己想像的更糟,平淡的丈夫和不成思议的家庭让他对女儿的未来越发担忧,但是这一切都非他所能改变。旅途中他从未停止给恩度古写信,在信里,施密特详实的描写着自己的生活和困惑。当施密特加入完女儿的婚礼,回抵家时意外的收到恩度古的复书,看着那些简单的笔墨和恩度古布满童真的图画,施密特忽然泪如泉涌……

获奖情况  

  第75届奥斯卡金像奖(2003)
  最好男配角(提名) 杰克·尼科尔森
  最好女配角(提名) 凯西·贝茨

  第55届戛纳电影节(2002)
  主比赛单元 金棕榈奖(提名) 亚历山大·佩恩

  第56届英国电影学院奖(2003)
  电影奖 最好男配角(提名) 杰克·尼科尔森

  第3届美国电影学会奖(2002)
  年度佳片



  1. Video
  2. ID                                       : 1
  3. Format                                   : AVC
  4. Format/Info                              : Advanced Video Codec
  5. Format profile                           : <a href="/cdn-cgi/l/email-protection" class="__cf_email__" data-cfemail="fdb5949a95bdb1c9d3cc">[email protected]</a>
  6. Format settings                          : CABAC / 4 Ref Frames
  7. Format settings, CABAC                   : Yes
  8. Format settings, ReFrames                : 4 frames
  9. Codec ID                                 : V_MPEG4/ISO/AVC
  10. Duration                                 : 2 h 5 min
  11. Bit rate                                 : 8 470 kb/s
  12. Width                                    : 1 920 pixels
  13. Height                                   : 1 080 pixels
  14. Display aspect ratio                     : 16:9
  15. Frame rate mode                          : Constant
  16. Frame rate                               : 23.976 (24000/1001) FPS
  17. Color space                              : YUV
  18. Chroma subsampling                       : 4:2:0
  19. Bit depth                                : 8 bits
  20. Scan type                                : Progressive
  21. Bits/(Pixel*Frame)                       : 0.170
  22. Stream size                              : 7.25 GiB (83%)
  23. Writing library                          : x264 core 144 r2525 40bb568
  24. Encoding settings                        : cabac=1 / ref=4 / deblock=1:-3:-3 / analyse=0x3:0x113 / me=umh / subme=8 / psy=1 / psy_rd=1.00:0.00 / mixed_ref=1 / me_range=16 / chroma_me=1 / trellis=1 / 8x8dct=1 / cqm=0 / deadzone=21,11 / fast_pskip=1 / chroma_qp_offset=-2 / threads=12 / lookahead_threads=2 / sliced_threads=0 / nr=0 / decimate=1 / interlaced=0 / bluray_compat=0 / constrained_intra=0 / bframes=3 / b_pyramid=2 / b_adapt=2 / b_bias=0 / direct=3 / weightb=1 / open_gop=0 / weightp=2 / keyint=240 / keyint_min=24 / scenecut=40 / intra_refresh=0 / rc_lookahead=50 / rc=2pass / mbtree=1 / bitrate=8470 / ratetol=1.0 / qcomp=0.60 / qpmin=0 / qpmax=69 / qpstep=4 / cplxblur=20.0 / qblur=0.5 / ip_ratio=1.40 / aq=1:1.00
  25. Language                                 : English
  26. Default                                  : Yes
  27. Forced                                   : No

  28. Audio
  29. ID                                       : 2
  30. Format                                   : DTS
  31. Format/Info                              : Digital Theater Systems
  32. Codec ID                                 : A_DTS
  33. Duration                                 : 2 h 5 min
  34. Bit rate mode                            : Constant
  35. Bit rate                                 : 1 509 kb/s
  36. Channel(s)                               : 6 channels
  37. Channel positions                        : Front: L C R, Side: L R, LFE
  38. Sampling rate                            : 48.0 kHz
  39. Frame rate                               : 93.750 FPS (512 SPF)
  40. Bit depth                                : 24 bits
  41. Compression mode                         : Lossy
  42. Stream size                              : 1.32 GiB (15%)
  43. Language                                 : English
  44. Default                                  : Yes
  45. Forced                                   : No

  46. Text #1
  47. ID                                       : 3
  48. Format                                   : UTF-8
  49. Codec ID                                 : S_TEXT/UTF8
  50. Codec ID/Info                            : UTF-8 Plain Text
  51. Title                                    : SDH
  52. Language                                 : English
  53. Default                                  : No
  54. Forced                                   : No

  55. Text #2
  56. ID                                       : 4
  57. Format                                   : UTF-8
  58. Codec ID                                 : S_TEXT/UTF8
  59. Codec ID/Info                            : UTF-8 Plain Text
  60. Language                                 : English
  61. Default                                  : No
  62. Forced                                   : No

  63. Menu
  64. 00:00:00.000                             : en:00:00:00.000
  65. 00:10:21.621                             : en:00:10:21.621
  66. 00:19:56.195                             : en:00:19:56.195
  67. 00:29:35.774                             : en:00:29:35.774
  68. 00:40:05.987                             : en:00:40:05.987
  69. 00:50:13.761                             : en:00:50:13.761
  70. 01:00:49.229                             : en:01:00:49.229
  71. 01:10:38.818                             : en:01:10:38.818
  72. 01:19:10.955                             : en:01:19:10.955
  73. 01:31:14.719                             : en:01:31:14.719
  74. 01:39:11.487                             : en:01:39:11.487
  75. 01:53:50.323                             : en:01:53:50.323
  76. 02:00:21.047                             : en:02:00:21.047
复制代码

关于施密特/心的偏向 About.Schmidt.2002.1080p.BluRay.X264-AMIABLE 8.74GB-3.png 关于施密特/心的偏向 About.Schmidt.2002.1080p.BluRay.X264-AMIABLE 8.74GB-5.png 关于施密特/心的偏向 About.Schmidt.2002.1080p.BluRay.X264-AMIABLE 8.74GB-6.png 关于施密特/心的偏向 About.Schmidt.2002.1080p.BluRay.X264-AMIABLE 8.74GB-7.png






回复

使用道具 举报

级别:荣升主角 Lv.5

注册时间
2019-1-26
最后登录
2019-6-25
听众
7
收听
0
主题
0
蓝光币
688 枚
贡献
0 点
发表于 2019-6-10 09:39:38 | 显示全部楼层

楼主太厉害了!楼主,电影应该很好看我觉得中国高清电影网真是个好地方!
回复

使用道具 举报

级别:专业龙套 Lv.4

注册时间
2019-1-23
最后登录
2019-6-25
听众
7
收听
0
主题
0
蓝光币
511 枚
贡献
0 点
发表于 2019-6-10 20:37:05 | 显示全部楼层

楼主太厉害了!楼主,电影应该很好看我觉得中国高清电影网真是个好地方!
回复

使用道具 举报

级别:群众演员 Lv.3

注册时间
2019-1-22
最后登录
2019-6-22
听众
7
收听
0
主题
0
蓝光币
198 枚
贡献
0 点
发表于 2019-6-11 00:00:26 | 显示全部楼层
楼主发贴辛苦了,谢谢楼主分享!我觉得中国高清电影网是注册对了!
回复

使用道具 举报

级别:专业龙套 Lv.4

注册时间
2019-1-17
最后登录
2019-6-25
听众
7
收听
0
主题
0
蓝光币
418 枚
贡献
0 点
QQ
发表于 2019-6-11 18:08:58 | 显示全部楼层

楼主太厉害了!楼主,电影应该很好看我觉得中国高清电影网真是个好地方!
回复

使用道具 举报

级别:群众演员 Lv.3

注册时间
2019-4-11
最后登录
2019-6-12
听众
5
收听
0
主题
0
蓝光币
368 枚
贡献
0 点
发表于 2019-6-12 15:31:06 | 显示全部楼层
楼主发贴辛苦了,谢谢楼主分享!我觉得中国高清电影网是注册对了!
回复

使用道具 举报

级别:初级观众 Lv.1

注册时间
2019-6-13
最后登录
2019-6-13
听众
2
收听
0
主题
0
蓝光币
3 枚
贡献
0 点
QQ
发表于 2019-6-13 14:41:54 | 显示全部楼层
请问有中字吗?
回复

使用道具 举报

级别:普通观众 Lv.2

注册时间
2019-6-11
最后登录
2019-6-25
听众
3
收听
0
主题
0
蓝光币
20 枚
贡献
0 点
发表于 2019-6-13 20:58:18 | 显示全部楼层
感谢楼主无私分享
回复

使用道具 举报

级别:初级观众 Lv.1

注册时间
2019-2-17
最后登录
2019-6-13
听众
6
收听
0
主题
0
蓝光币
1 枚
贡献
0 点
QQ
发表于 2019-6-13 21:01:13 | 显示全部楼层
谢谢分享  谢谢分享
回复

使用道具 举报

级别:普通观众 Lv.2

注册时间
2019-2-8
最后登录
2019-6-13
听众
5
收听
0
主题
0
蓝光币
7 枚
贡献
0 点
发表于 2019-6-13 22:01:18 | 显示全部楼层
感谢分享,谢谢
回复

使用道具 举报

*滑动验证:
懒得打字嘛,点击右侧快捷回复 【右侧内容,后台自定义】
您需要登录后才可以回帖 登录 | 立即注册

本版积分规则

QQ|Archiver|手机版|小黑屋| 中国高清网 |网站地图

GMT+8, 2019-6-25 20:30 , Processed in 0.313634 second(s), 47 queries .

Powered by HDchina X3.4

Copyright 2017-2019©HDchina.All right reserved

返回顶部 联系我们