你所知道的4K资源这里全部都有 4K电影 | 4K视频 | 4K壁纸 | 4K MV 怎么播放4K视频 | 4K电视演示片

教你玩转4K私人与家庭影院存储 NAS组装 | 黑群辉 家庭/影院Nas论坛

4K家庭影院信号源与视频设备知识 4K蓝光高清播放机 - 那个品牌好? 4K投影机论坛 | 4K电视机论坛

手把手教你搭建属于自己的家庭影院 4K家庭影院案例 | 家庭影院音频 4K家庭影院论坛

查看: 138|回复: 4

[剧情片] 冒牌上尉/以希魔的名义 The.Captain.2017.GERMAN.1080p.BluRay.REMUX.AVC.DTS-HD.MA.5.1-FGT 29.20GB

[复制链接]

 成长值: 730

级别:资源管理组

注册时间
2017-10-20
最后登录
2019-3-24
听众
0
收听
0
主题
76515
蓝光币
135280 枚
贡献
146324 点
发表于 2019-1-12 12:01:12 | 显示全部楼层 |阅读模式

冒牌上尉/以希魔的名义 The.Captain.2017.GERMAN.1080p.BluRay.REMUX.AVC.DTS-HD.MA.5.1-FGT 29.20GB-1.jpg
◎译  名 冒牌上尉 / 以希魔的名义(港) / The Captain
◎片  名 冒牌上尉 Der Hauptmann
◎年  代 2017
◎国  家 德国 / 波兰 / 葡萄牙 / 法国
◎类  别 剧情 / 历史 / 战争
◎语  言 德语
◎上映日期 2017-09-07(多伦多电影节) / 2018-03-15(德国)
◎IMDb评分  7.4/10 from 3,927 users
◎IMDb链接  http://www.imdb.com/title/tt6763252/
◎豆瓣评分 8.5/10 from 11395 users
◎豆瓣链接 https://movie.douban.com/subject/27114240/
◎片  长 118分钟
◎导  演 罗伯特·斯文克
◎主  演 麦克斯·胡巴赫
      米兰·佩舍尔
      弗雷德里克·劳
      贝恩义·霍尔谢尔
      瓦尔德马·科布斯
      亚历山大·费林
      萨缪尔·芬齐

◎简  介 

  德国二战题材影片。影片按照实在故事改编,报告了一位十九岁的普通国防兵威利赫罗德在二战最初两周内成为所谓的“埃姆斯兰德刽子手”的故事。他凭仗捡到的上尉礼服而冒充军官,将崩溃的其他兵士聚集起来组成出格使命小组,一路劫掠地在行将沦陷的纳粹帝国大地上为所欲为,并以元首为楷模把握起拘系和生杀大权。
  该片获得了客岁圣塞巴斯蒂安国际电影节的最好摄影奖。

◎获奖情况 

  第31届欧洲电影奖 (2018)
  最好音效设想

  第5届豆瓣电影年度榜单 (2018)
  年度冷门佳片(提名)


  1. Video
  2. ID                                       : 1
  3. Format                                   : AVC
  4. Format/Info                              : Advanced Video Codec
  5. Format profile                           : [url=/cdn-cgi/l/email-protection][email protected][/url]
  6. Format settings                          : CABAC / 4 Ref Frames
  7. Format settings, CABAC                   : Yes
  8. Format settings, ReFrames                : 4 frames
  9. Format settings, GOP                     : M=3, N=12
  10. Codec ID                                 : V_MPEG4/ISO/AVC
  11. Duration                                 : 1 h 59 min
  12. Bit rate mode                            : Variable
  13. Bit rate                                 : 26.0 Mb/s
  14. Maximum bit rate                         : 33.0 Mb/s
  15. Width                                    : 1 920 pixels
  16. Height                                   : 1 080 pixels
  17. Display aspect ratio                     : 16:9
  18. Frame rate mode                          : Constant
  19. Frame rate                               : 24.000 FPS
  20. Standard                                 : NTSC
  21. Color space                              : YUV
  22. Chroma subsampling                       : 4:2:0
  23. Bit depth                                : 8 bits
  24. Scan type                                : Progressive
  25. Bits/(Pixel*Frame)                       : 0.522
  26. Stream size                              : 21.7 GiB (74%)
  27. Title                                    : The.Captain.2017.GERMAN.1080p.BluRay.REMUX.AVC.DTS-HD.MA.5.1-FGT
  28. Language                                 : English
  29. Default                                  : No
  30. Forced                                   : No
  31. Color range                              : Limited
  32. Color primaries                          : BT.709
  33. Transfer characteristics                 : BT.709
  34. Matrix coefficients                      : BT.709

  35. Audio #1
  36. ID                                       : 2
  37. Format                                   : DTS XLL
  38. Format/Info                              : Digital Theater Systems
  39. Commercial name                          : DTS-HD Master Audio
  40. Codec ID                                 : A_DTS
  41. Duration                                 : 1 h 59 min
  42. Bit rate mode                            : Variable
  43. Bit rate                                 : 3 692 kb/s
  44. Channel(s)                               : 6 channels
  45. Channel layout                           : C L R Ls Rs LFE
  46. Sampling rate                            : 48.0 kHz
  47. Frame rate                               : 93.750 FPS (512 SPF)
  48. Bit depth                                : 24 bits
  49. Compression mode                         : Lossless
  50. Stream size                              : 3.08 GiB (11%)
  51. Title                                    : The.Captain.2017.GERMAN.1080p.BluRay.REMUX.AVC.DTS-HD.MA.5.1-FGT
  52. Language                                 : German
  53. Default                                  : Yes
  54. Forced                                   : No

  55. Audio #2
  56. ID                                       : 3
  57. Format                                   : DTS
  58. Format/Info                              : Digital Theater Systems
  59. Codec ID                                 : A_DTS
  60. Duration                                 : 1 h 59 min
  61. Bit rate mode                            : Constant
  62. Bit rate                                 : 1 509 kb/s
  63. Channel(s)                               : 6 channels
  64. Channel layout                           : C L R Ls Rs LFE
  65. Sampling rate                            : 48.0 kHz
  66. Frame rate                               : 93.750 FPS (512 SPF)
  67. Bit depth                                : 24 bits
  68. Compression mode                         : Lossy
  69. Stream size                              : 1.26 GiB (4%)
  70. Title                                    : The.Captain.2017.GERMAN.1080p.BluRay.REMUX.AVC.DTS-HD.MA.5.1-FGT
  71. Language                                 : German
  72. Default                                  : No
  73. Forced                                   : No

  74. Audio #3
  75. ID                                       : 4
  76. Format                                   : DTS XLL
  77. Format/Info                              : Digital Theater Systems
  78. Commercial name                          : DTS-HD Master Audio
  79. Codec ID                                 : A_DTS
  80. Duration                                 : 1 h 59 min
  81. Bit rate mode                            : Variable
  82. Bit rate                                 : 2 095 kb/s
  83. Channel(s)                               : 2 channels
  84. Channel layout                           : L R
  85. Sampling rate                            : 48.0 kHz
  86. Frame rate                               : 93.750 FPS (512 SPF)
  87. Bit depth                                : 24 bits
  88. Compression mode                         : Lossless
  89. Stream size                              : 1.75 GiB (6%)
  90. Title                                    : The.Captain.2017.GERMAN.1080p.BluRay.REMUX.AVC.DTS-HD.MA.5.1-FGT
  91. Language                                 : German
  92. Default                                  : No
  93. Forced                                   : No

  94. Audio #4
  95. ID                                       : 5
  96. Format                                   : DTS
  97. Format/Info                              : Digital Theater Systems
  98. Codec ID                                 : A_DTS
  99. Duration                                 : 1 h 59 min
  100. Bit rate mode                            : Constant
  101. Bit rate                                 : 1 509 kb/s
  102. Channel(s)                               : 2 channels
  103. Channel layout                           : L R
  104. Sampling rate                            : 48.0 kHz
  105. Frame rate                               : 93.750 FPS (512 SPF)
  106. Bit depth                                : 24 bits
  107. Compression mode                         : Lossy
  108. Stream size                              : 1.26 GiB (4%)
  109. Title                                    : The.Captain.2017.GERMAN.1080p.BluRay.REMUX.AVC.DTS-HD.MA.5.1-FGT
  110. Language                                 : German
  111. Default                                  : No
  112. Forced                                   : No

  113. Audio #5
  114. ID                                       : 6
  115. Format                                   : AC-3
  116. Format/Info                              : Audio Coding 3
  117. Commercial name                          : Dolby Digital
  118. Codec ID                                 : A_AC3
  119. Duration                                 : 1 h 59 min
  120. Bit rate mode                            : Constant
  121. Bit rate                                 : 192 kb/s
  122. Channel(s)                               : 2 channels
  123. Channel layout                           : L R
  124. Sampling rate                            : 48.0 kHz
  125. Frame rate                               : 31.250 FPS (1536 SPF)
  126. Bit depth                                : 16 bits
  127. Compression mode                         : Lossy
  128. Stream size                              : 164 MiB (1%)
  129. Title                                    : The.Captain.2017.GERMAN.1080p.BluRay.REMUX.AVC.DTS-HD.MA.5.1-FGT
  130. Language                                 : English
  131. Service kind                             : Complete Main
  132. Default                                  : No
  133. Forced                                   : No

  134. Text
  135. ID                                       : 7
  136. Format                                   : PGS
  137. Muxing mode                              : zlib
  138. Codec ID                                 : S_HDMV/PGS
  139. Codec ID/Info                            : Picture based subtitle format used on BDs/HD-DVDs
  140. Duration                                 : 1 h 54 min
  141. Bit rate                                 : 24.6 kb/s
  142. Count of elements                        : 1644
  143. Stream size                              : 20.1 MiB (0%)
  144. Title                                    : English-PGS
  145. Language                                 : English
  146. Default                                  : Yes
  147. Forced                                   : Yes

  148. Menu
  149. 00:00:00.000                             : en:Chapter 01
  150. 00:07:16.416                             : en:Chapter 02
  151. 00:16:22.125                             : en:Chapter 03
  152. 00:24:26.666                             : en:Chapter 04
  153. 00:31:22.250                             : en:Chapter 05
  154. 00:39:08.583                             : en:Chapter 06
  155. 00:46:21.041                             : en:Chapter 07
  156. 00:52:05.583                             : en:Chapter 08
  157. 01:02:44.958                             : en:Chapter 09
  158. 01:08:40.458                             : en:Chapter 10
  159. 01:15:04.916                             : en:Chapter 11
  160. 01:26:20.666                             : en:Chapter 12
  161. 01:32:54.375                             : en:Chapter 13
  162. 01:39:57.708                             : en:Chapter 14
  163. 01:48:49.375                             : en:Chapter 15
  164. 01:54:46.875                             : en:Chapter 16
复制代码

复制代码

冒牌上尉/以希魔的名义 The.Captain.2017.GERMAN.1080p.BluRay.REMUX.AVC.DTS-HD.MA.5.1-FGT 29.20GB-2.png 冒牌上尉/以希魔的名义 The.Captain.2017.GERMAN.1080p.BluRay.REMUX.AVC.DTS-HD.MA.5.1-FGT 29.20GB-3.png 冒牌上尉/以希魔的名义 The.Captain.2017.GERMAN.1080p.BluRay.REMUX.AVC.DTS-HD.MA.5.1-FGT 29.20GB-4.png





回复

使用道具 举报

级别:荣升主角 Lv.5

注册时间
2018-5-27
最后登录
2019-3-23
听众
4
收听
0
主题
0
蓝光币
17 枚
贡献
0 点
发表于 2019-1-12 17:54:43 | 显示全部楼层
感谢分享!
回复

使用道具 举报

级别:群众演员 Lv.3

注册时间
2018-11-1
最后登录
2019-2-22
听众
0
收听
0
主题
0
蓝光币
327 枚
贡献
0 点
发表于 2019-1-19 11:23:29 | 显示全部楼层
楼主发贴辛苦了,谢谢楼主分享!我觉得中国高清电影网是注册对了!
回复

使用道具 举报

级别:普通观众 Lv.2

注册时间
2019-1-18
最后登录
2019-3-19
听众
1
收听
0
主题
0
蓝光币
39 枚
贡献
0 点
发表于 2019-1-30 16:01:17 | 显示全部楼层

楼主太厉害了!楼主,电影应该很好看我觉得中国高清电影网真是个好地方!
回复

使用道具 举报

级别:群众演员 Lv.3

注册时间
2019-1-14
最后登录
2019-3-22
听众
1
收听
0
主题
0
蓝光币
61 枚
贡献
0 点
发表于 2019-2-15 08:19:43 | 显示全部楼层
楼主发贴辛苦了,谢谢楼主分享!我觉得中国高清电影网是注册对了!
回复

使用道具 举报

懒得打字嘛,点击右侧快捷回复 【右侧内容,后台自定义】
您需要登录后才可以回帖 登录 | 立即注册

本版积分规则

QQ|Archiver|手机版|小黑屋|中国高清网 |网站地图

GMT+8, 2019-3-24 11:21 , Processed in 0.191690 second(s), 41 queries .

Powered by HDchina X3.4

Copyright 2017-2018©HDchina.All right reserved

返回顶部 联系我们