你所知道的4K资源这里全部都有 4K电影 | 4K视频 | 4K壁纸 | 4K MV 怎么播放4K视频 | 4K电视演示片

教你玩转4K私人与家庭影院存储 NAS组装 | 黑群辉 家庭/影院Nas论坛

4K家庭影院信号源与视频设备知识 4K蓝光高清播放机 - 那个品牌好? 4K投影机论坛 | 4K电视机论坛

手把手教你搭建属于自己的家庭影院 4K家庭影院案例 | 家庭影院音频 4K家庭影院论坛

查看: 103|回复: 1

[惊悚片] 欢迎回家 Welcome.Home.2018.1080p.BluRay.REMUX.AVC.DTS-HR.5.1-FGT 22.84GB

[复制链接]

 成长值: 730

级别:资源管理组

注册时间
2017-10-20
最后登录
2019-3-24
听众
0
收听
0
主题
76515
蓝光币
135274 枚
贡献
146324 点
发表于 2019-1-11 10:14:20 | 显示全部楼层 |阅读模式

接待回家 Welcome.Home.2018.1080p.BluRay.REMUX.AVC.DTS-HR.5.1-FGT 22.84GB-1.jpg
◎译  名 接待回家
◎片  名 接待回家 Welcome Home
◎年  代 2019
◎国  家 美国
◎类  别 惊悚
◎语  言 英语
◎上映日期 2018-09-08(新西兰)
◎IMDb评分  5.1/10 from 922 users
◎IMDb链接  http://www.imdb.com/title/tt6829180/
◎豆瓣评分 今朝无人评价
◎豆瓣链接 https://movie.douban.com/subject/27029491/
◎片  长 无片长信息
◎导  演 乔治·拉提夫
◎主  演 亚伦·保尔
      艾米丽·拉塔科斯基
      里卡多·斯卡马乔

◎简  介 

  亚伦·保尔和艾米丽·拉塔科斯基将加盟新片[接待回家](Welcome Home,暂译)。[荒宅遗言]编剧David Levinson执笔该片剧本。“小粉”和艾米丽将饰演周末在意大利农村度假的一对情侣,他们试图修复相互关系。但很快他们成了房东凶险计划的受害者。电影将于5月底在意大利托斯卡纳开拍。


  1. Video
  2. ID                                       : 1
  3. Format                                   : AVC
  4. Format/Info                              : Advanced Video Codec
  5. Format profile                           : [url=/cdn-cgi/l/email-protection][email protected][/url]
  6. Format settings                          : CABAC / 4 Ref Frames
  7. Format settings, CABAC                   : Yes
  8. Format settings, ReFrames                : 4 frames
  9. Codec ID                                 : V_MPEG4/ISO/AVC
  10. Duration                                 : 1 h 37 min
  11. Bit rate mode                            : Variable
  12. Bit rate                                 : 29.9 Mb/s
  13. Maximum bit rate                         : 38.0 Mb/s
  14. Width                                    : 1 920 pixels
  15. Height                                   : 1 080 pixels
  16. Display aspect ratio                     : 16:9
  17. Frame rate mode                          : Constant
  18. Frame rate                               : 23.976 (24000/1001) FPS
  19. Color space                              : YUV
  20. Chroma subsampling                       : 4:2:0
  21. Bit depth                                : 8 bits
  22. Scan type                                : Progressive
  23. Bits/(Pixel*Frame)                       : 0.601
  24. Stream size                              : 20.4 GiB (89%)
  25. Title                                    : Welcome.Home.2018.1080p.BluRay.REMUX.AVC.DTS-HR.5.1-FGT
  26. Language                                 : English
  27. Default                                  : No
  28. Forced                                   : No

  29. Audio #1
  30. ID                                       : 2
  31. Format                                   : DTS XBR
  32. Format/Info                              : Digital Theater Systems
  33. Commercial name                          : DTS-HD High Resolution Audio
  34. Codec ID                                 : A_DTS
  35. Duration                                 : 1 h 37 min
  36. Bit rate mode                            : Constant
  37. Bit rate                                 : 2 046 kb/s
  38. Channel(s)                               : 6 channels
  39. Channel layout                           : C L R Ls Rs LFE
  40. Sampling rate                            : 48.0 kHz
  41. Frame rate                               : 93.750 FPS (512 SPF)
  42. Bit depth                                : 24 bits
  43. Compression mode                         : Lossy
  44. Stream size                              : 1.40 GiB (6%)
  45. Title                                    : Welcome.Home.2018.1080p.BluRay.REMUX.AVC.DTS-HR.5.1-FGT
  46. Language                                 : English
  47. Default                                  : Yes
  48. Forced                                   : No

  49. Audio #2
  50. ID                                       : 3
  51. Format                                   : DTS
  52. Format/Info                              : Digital Theater Systems
  53. Codec ID                                 : A_DTS
  54. Duration                                 : 1 h 37 min
  55. Bit rate mode                            : Constant
  56. Bit rate                                 : 1 509 kb/s
  57. Channel(s)                               : 6 channels
  58. Channel layout                           : C L R Ls Rs LFE
  59. Sampling rate                            : 48.0 kHz
  60. Frame rate                               : 93.750 FPS (512 SPF)
  61. Bit depth                                : 24 bits
  62. Compression mode                         : Lossy
  63. Stream size                              : 1.03 GiB (5%)
  64. Title                                    : Welcome.Home.2018.1080p.BluRay.REMUX.AVC.DTS-HR.5.1-FGT
  65. Language                                 : English
  66. Default                                  : No
  67. Forced                                   : No

  68. Text
  69. ID                                       : 4
  70. Format                                   : PGS
  71. Muxing mode                              : zlib
  72. Codec ID                                 : S_HDMV/PGS
  73. Codec ID/Info                            : Picture based subtitle format used on BDs/HD-DVDs
  74. Duration                                 : 10 min 11 s
  75. Bit rate                                 : 2 448 b/s
  76. Count of elements                        : 24
  77. Stream size                              : 183 KiB (0%)
  78. Title                                    : English-FORCED-PGS
  79. Language                                 : English
  80. Default                                  : Yes
  81. Forced                                   : No

  82. Menu
  83. 00:00:00.000                             : en:Chapter 01
  84. 00:06:42.068                             : en:Chapter 02
  85. 00:12:26.996                             : en:Chapter 03
  86. 00:18:53.006                             : en:Chapter 04
  87. 00:25:27.943                             : en:Chapter 05
  88. 00:32:08.051                             : en:Chapter 06
  89. 00:37:09.393                             : en:Chapter 07
  90. 00:42:48.941                             : en:Chapter 08
  91. 00:48:54.389                             : en:Chapter 09
  92. 00:53:10.687                             : en:Chapter 10
  93. 00:59:34.779                             : en:Chapter 11
  94. 01:05:20.791                             : en:Chapter 12
  95. 01:10:48.744                             : en:Chapter 13
  96. 01:16:07.145                             : en:Chapter 14
  97. 01:22:30.236                             : en:Chapter 15
  98. 01:28:50.366                             : en:Chapter 16
  99. 01:34:49.433                             : en:Chapter 17
复制代码

复制代码

接待回家 Welcome.Home.2018.1080p.BluRay.REMUX.AVC.DTS-HR.5.1-FGT 22.84GB-2.png 接待回家 Welcome.Home.2018.1080p.BluRay.REMUX.AVC.DTS-HR.5.1-FGT 22.84GB-3.png 接待回家 Welcome.Home.2018.1080p.BluRay.REMUX.AVC.DTS-HR.5.1-FGT 22.84GB-4.png





回复

使用道具 举报

级别:群众演员 Lv.3

注册时间
2019-1-18
最后登录
2019-2-17
听众
0
收听
0
主题
0
蓝光币
163 枚
贡献
0 点
发表于 2019-1-19 18:54:49 | 显示全部楼层

楼主太厉害了!楼主,电影应该很好看我觉得中国高清电影网真是个好地方!
回复

使用道具 举报

懒得打字嘛,点击右侧快捷回复 【右侧内容,后台自定义】
您需要登录后才可以回帖 登录 | 立即注册

本版积分规则

QQ|Archiver|手机版|小黑屋|中国高清网 |网站地图

GMT+8, 2019-3-24 10:25 , Processed in 0.161838 second(s), 41 queries .

Powered by HDchina X3.4

Copyright 2017-2018©HDchina.All right reserved

返回顶部 联系我们