你所知道的4K资源这里全部都有 4K电影 | 4K视频 | 4K壁纸 | 4K MV 怎么播放4K视频 | 4K电视演示片

教你玩转4K私人与家庭影院存储 NAS组装 | 黑群辉 家庭/影院Nas论坛

4K家庭影院信号源与视频设备知识 4K蓝光高清播放机 - 那个品牌好? 4K投影机论坛 | 4K电视机论坛

手把手教你搭建属于自己的家庭影院 4K家庭影院案例 | 家庭影院音频 4K家庭影院论坛

查看: 187|回复: 2

[8bit.SDR] 月光光心慌慌/月光光新慌慌 Halloween.2018.2160p.BluRay.x264.8bit.SDR.DTS-X.7.1-SWTYBLZ 31.07GB

[复制链接]

 成长值: 1600

级别:资源管理组

注册时间
2017-10-20
最后登录
2019-6-18
听众
0
收听
0
主题
78702
蓝光币
27000 枚
贡献
3027 点
发表于 2019-1-11 10:13:22 | 显示全部楼层 |阅读模式

月光光心慌慌/月光光新慌慌 Halloween.2018.2160p.BluRay.x264.8bit.SDR.DTS-X.7.1-SWTYBLZ 31.07GB-1.jpg
◎译  名 月光光心慌慌 / 月光光新慌慌(台) / 万圣节归来 / 万圣节11 / Halloween 3-D / Halloween Returns / Halloween III
◎片  名 月光光心慌慌 Halloween
◎年  代 2018
◎国  家 美国
◎类  别 惊悚 / 可骇
◎语  言 英语
◎上映日期 2018-09-08(多伦多电影节) / 2018-10-19(美国)
◎IMDb评分  6.8/10 from 65,770 users
◎IMDb链接  http://www.imdb.com/title/tt1502407/
◎豆瓣评分 6.0/10 from 9679 users
◎豆瓣链接 https://movie.douban.com/subject/4017146/
◎片  长 106分钟
◎导  演 大卫·戈登·格林
◎主  演 杰米·李·柯蒂斯
      朱迪·格雷尔
      安迪·马蒂切克
      詹姆斯·裘德·柯特尼
      尼克·卡斯特尔
      哈鲁克·比尔根纳尔
      威尔·帕顿
      里安·里斯
      杰佛逊·豪尔
      托比·胡斯
      维吉尼亚·加德纳
      Dylan Arnold
      迈尔斯·罗宾斯
      Drew Scheid
      Jibrail Nantambu
      Michael 'Mick' Harrity
      Matthew Anderson
      奥马尔·J·多尔西
      克里斯托弗· 艾伦·尼尔森
      PJ·索尔丝
      Sandy Johnson
      乔恩·埃里克·海克瑟姆
      Meeno Peluce
      Jared Moser
      Rob Niter

◎简  介 

  著名杀人狂迈克尔·麦尔斯(Michael Myers)又返来了!帝门影业与特兰卡斯影业将再次推出全新的《万圣节》(月光光心慌慌)续篇——《万圣节归来》,这也是该系列第11部影片。影片的配角主如果一个18岁的男孩,他是曾惨死在迈克尔·麦尔斯手下的受害者的后代,另一个配角是 对迈克尔·麦尔斯案子出格感爱好的差人,甚至把这个案子看得比自己女儿还重要。迈克尔·麦尔斯身陷死牢等着被履行死刑,但他意外脱身,又有一群年轻人堕入危险中。
  韦恩斯坦影业的副主席鲍勃·韦恩斯坦暗示:“迈克尔·麦尔斯已经离别大银幕很久了,影迷们期盼着他的回归。我们希望借此机遇创作出一部最吓人的续集奉献给全天下的粉丝们。”
  该片将于7月正式开拍建造,并于2018年万圣节档登陆北美。

◎获奖情况 

  第43届多伦多国际电影节 (2018)
  观众挑选奖 半夜疯狂单元(提名)

  第24届美国批评家挑选电影奖 (2019)
  最好科幻/可骇片(提名)


  1. Video
  2. ID                                       : 1
  3. Format                                   : AVC
  4. Format/Info                              : Advanced Video Codec
  5. Format profile                           : [url=/cdn-cgi/l/email-protection][email protected][/url]
  6. Format settings                          : CABAC / 5 Ref Frames
  7. Format settings, CABAC                   : Yes
  8. Format settings, RefFrames               : 5 frames
  9. Codec ID                                 : V_MPEG4/ISO/AVC
  10. Duration                                 : 1 h 45 min
  11. Bit rate                                 : 35.7 Mb/s
  12. Width                                    : 3 840 pixels
  13. Height                                   : 1 606 pixels
  14. Display aspect ratio                     : 2.40:1
  15. Frame rate mode                          : Constant
  16. Frame rate                               : 23.976 (24000/1001) FPS
  17. Color space                              : YUV
  18. Chroma subsampling                       : 4:2:0
  19. Bit depth                                : 8 bits
  20. Scan type                                : Progressive
  21. Bits/(Pixel*Frame)                       : 0.242
  22. Stream size                              : 26.4 GiB (85%)
  23. Title                                    : Halloween.2018.2160p.BluRay.x264.8bit.SDR.DTS-X.7.1-SWTYBLZ
  24. Writing library                          : x264 core 157 r2935 545de2f
  25. Encoding settings                        : cabac=1 / ref=5 / deblock=1:-1:-1 / analyse=0x3:0x113 / me=umh / subme=10 / psy=1 / psy_rd=1.00:0.15 / mixed_ref=1 / me_range=48 / chroma_me=1 / trellis=2 / 8x8dct=1 / cqm=0 / deadzone=21,11 / fast_pskip=1 / chroma_qp_offset=-3 / threads=48 / lookahead_threads=4 / sliced_threads=0 / nr=0 / decimate=0 / interlaced=0 / bluray_compat=0 / constrained_intra=0 / bframes=3 / b_pyramid=2 / b_adapt=2 / b_bias=0 / direct=3 / weightb=1 / open_gop=0 / weightp=2 / keyint=250 / keyint_min=23 / scenecut=40 / intra_refresh=0 / rc_lookahead=50 / rc=crf / mbtree=1 / crf=18.0 / qcomp=0.60 / qpmin=0 / qpmax=69 / qpstep=4 / ip_ratio=1.40 / aq=1:1.00
  26. Default                                  : Yes
  27. Forced                                   : No

  28. Audio #1
  29. ID                                       : 2
  30. Format                                   : DTS XLL X
  31. Format/Info                              : Digital Theater Systems
  32. Commercial name                          : DTS-HD Master Audio
  33. Codec ID                                 : A_DTS
  34. Duration                                 : 1 h 45 min
  35. Bit rate mode                            : Variable
  36. Bit rate                                 : 5 465 kb/s
  37. Channel(s)                               : 8 channels
  38. Channel(s)_Original                      : Object Based
  39. Channel layout                           : Object Based
  40. Sampling rate                            : 48.0 kHz
  41. Frame rate                               : 93.750 FPS (512 SPF)
  42. Bit depth                                : 24 bits
  43. Stream size                              : 4.04 GiB (13%)
  44. Title                                    : Halloween.2018.2160p.BluRay.x264.8bit.SDR.DTS-X.7.1-SWTYBLZ
  45. Language                                 : English
  46. Default                                  : Yes
  47. Forced                                   : No

  48. Audio #2
  49. ID                                       : 3
  50. Format                                   : AC-3
  51. Format/Info                              : Audio Coding 3
  52. Commercial name                          : Dolby Digital
  53. Codec ID                                 : A_AC3
  54. Duration                                 : 1 h 45 min
  55. Bit rate mode                            : Constant
  56. Bit rate                                 : 640 kb/s
  57. Channel(s)                               : 6 channels
  58. Channel layout                           : L R C LFE Ls Rs
  59. Sampling rate                            : 48.0 kHz
  60. Frame rate                               : 31.250 FPS (1536 SPF)
  61. Bit depth                                : 16 bits
  62. Compression mode                         : Lossy
  63. Stream size                              : 484 MiB (2%)
  64. Title                                    : Halloween.2018.2160p.BluRay.x264.8bit.SDR.DTS-X.7.1-SWTYBLZ
  65. Language                                 : English
  66. Service kind                             : Complete Main
  67. Default                                  : No
  68. Forced                                   : No

  69. Text #1
  70. ID                                       : 4
  71. Format                                   : UTF-8
  72. Codec ID                                 : S_TEXT/UTF8
  73. Codec ID/Info                            : UTF-8 Plain Text
  74. Duration                                 : 1 h 38 min
  75. Bit rate                                 : 52 b/s
  76. Count of elements                        : 1169
  77. Stream size                              : 38.0 KiB (0%)
  78. Title                                    : English-SRT
  79. Language                                 : English
  80. Default                                  : Yes
  81. Forced                                   : No

  82. Text #2
  83. ID                                       : 5
  84. Format                                   : PGS
  85. Muxing mode                              : zlib
  86. Codec ID                                 : S_HDMV/PGS
  87. Codec ID/Info                            : Picture based subtitle format used on BDs/HD-DVDs
  88. Duration                                 : 1 h 44 min
  89. Bit rate                                 : 42.8 kb/s
  90. Count of elements                        : 3064
  91. Stream size                              : 32.0 MiB (0%)
  92. Title                                    : English-PGS
  93. Language                                 : English
  94. Default                                  : No
  95. Forced                                   : No

  96. Text #3
  97. ID                                       : 6
  98. Format                                   : PGS
  99. Muxing mode                              : zlib
  100. Codec ID                                 : S_HDMV/PGS
  101. Codec ID/Info                            : Picture based subtitle format used on BDs/HD-DVDs
  102. Duration                                 : 1 h 44 min
  103. Bit rate                                 : 29.1 kb/s
  104. Count of elements                        : 2306
  105. Stream size                              : 21.7 MiB (0%)
  106. Title                                    : Spanish-PGS
  107. Language                                 : Spanish
  108. Default                                  : No
  109. Forced                                   : No

  110. Text #4
  111. ID                                       : 7
  112. Format                                   : PGS
  113. Muxing mode                              : zlib
  114. Codec ID                                 : S_HDMV/PGS
  115. Codec ID/Info                            : Picture based subtitle format used on BDs/HD-DVDs
  116. Duration                                 : 1 h 44 min
  117. Bit rate                                 : 29.0 kb/s
  118. Count of elements                        : 2332
  119. Stream size                              : 21.6 MiB (0%)
  120. Title                                    : French-PGS
  121. Language                                 : French
  122. Default                                  : No
  123. Forced                                   : No

  124. Menu
  125. 00:00:00.000                             : :Chapter 1
  126. 00:08:42.522                             : :Chapter 2
  127. 00:14:26.949                             : :Chapter 3
  128. 00:20:46.995                             : :Chapter 4
  129. 00:23:17.854                             : :Chapter 5
  130. 00:27:45.080                             : :Chapter 6
  131. 00:32:55.723                             : :Chapter 7
  132. 00:40:51.365                             : :Chapter 8
  133. 00:44:41.053                             : :Chapter 9
  134. 00:48:26.403                             : :Chapter 10
  135. 00:53:26.453                             : :Chapter 11
  136. 00:59:18.596                             : :Chapter 12
  137. 01:03:22.340                             : :Chapter 13
  138. 01:07:29.628                             : :Chapter 14
  139. 01:14:46.523                             : :Chapter 15
  140. 01:18:10.560                             : :Chapter 16
  141. 01:22:04.836                             : :Chapter 17
  142. 01:30:09.904                             : :Chapter 18
  143. 01:35:33.394                             : :Chapter 19
  144. 01:40:41.493                             : :Chapter 20
复制代码

复制代码

月光光心慌慌/月光光新慌慌 Halloween.2018.2160p.BluRay.x264.8bit.SDR.DTS-X.7.1-SWTYBLZ 31.07GB-2.png 月光光心慌慌/月光光新慌慌 Halloween.2018.2160p.BluRay.x264.8bit.SDR.DTS-X.7.1-SWTYBLZ 31.07GB-3.png 月光光心慌慌/月光光新慌慌 Halloween.2018.2160p.BluRay.x264.8bit.SDR.DTS-X.7.1-SWTYBLZ 31.07GB-4.png 月光光心慌慌/月光光新慌慌 Halloween.2018.2160p.BluRay.x264.8bit.SDR.DTS-X.7.1-SWTYBLZ 31.07GB-5.png 月光光心慌慌/月光光新慌慌 Halloween.2018.2160p.BluRay.x264.8bit.SDR.DTS-X.7.1-SWTYBLZ 31.07GB-6.png 月光光心慌慌/月光光新慌慌 Halloween.2018.2160p.BluRay.x264.8bit.SDR.DTS-X.7.1-SWTYBLZ 31.07GB-7.png





本帖隐藏的下载地址需要VIP会员才可阅读,您需要升级才可阅读,点击这里升级VIP

回复

使用道具 举报

级别:初级观众 Lv.1

注册时间
2019-1-11
最后登录
2019-1-11
听众
4
收听
0
主题
0
蓝光币
4 枚
贡献
0 点
发表于 2019-1-11 21:37:49 | 显示全部楼层
楼主发贴辛苦了,谢谢楼主分享!我觉得中国高清电影网是注册对了!
回复

使用道具 举报

级别:普通观众 Lv.2

注册时间
2019-1-18
最后登录
2019-6-15
听众
5
收听
0
主题
0
蓝光币
35 枚
贡献
0 点
发表于 2019-1-18 23:37:42 | 显示全部楼层
楼主发贴辛苦了,谢谢楼主分享!我觉得中国高清电影网是注册对了!
回复

使用道具 举报

*滑动验证:
懒得打字嘛,点击右侧快捷回复 【右侧内容,后台自定义】
您需要登录后才可以回帖 登录 | 立即注册

本版积分规则

QQ|Archiver|手机版|小黑屋| 中国高清网 |网站地图

GMT+8, 2019-6-18 19:23 , Processed in 0.195000 second(s), 47 queries .

Powered by HDchina X3.4

Copyright 2017-2019©HDchina.All right reserved

返回顶部 联系我们