你所知道的4K资源这里全部都有 4K电影 | 4K视频 | 4K壁纸 | 4K MV 怎么播放4K视频 | 4K电视演示片

教你玩转4K私人与家庭影院存储 NAS组装 | 黑群辉 家庭/影院Nas论坛

4K家庭影院信号源与视频设备知识 4K蓝光高清播放机 - 那个品牌好? 4K投影机论坛 | 4K电视机论坛

手把手教你搭建属于自己的家庭影院 4K家庭影院案例 | 家庭影院音频 4K家庭影院论坛

查看: 25|回复: 0

[悬疑片] 信息删除/夺命留言 Messages.Deleted.2010.1080p.BluRay.x264-NOSCREENS 7.95GB

[复制链接]

 成长值: 70

级别:资源管理组

UID
1
注册时间
2017-10-20
最后登录
2019-1-17
听众
0
收听
0
主题
73857
蓝光币
114332 枚
贡献
143666 点
发表于 6 天前 | 显示全部楼层 |阅读模式

信息删除/夺命留言 Messages.Deleted.2010.1080p.BluRay.x264-NOSCREENS 7.95GB-1.jpg
◎译  名 信息删除 / 夺命留言
◎片  名 信息删除 Messages Deleted
◎年  代 2009
◎国  家 加拿大
◎类  别 悬疑 / 惊悚
◎语  言 英语
◎上映日期 2009-02-06(德国)
◎IMDb评分  5.0/10 from 1,894 users
◎IMDb链接  http://www.imdb.com/title/tt1072754/
◎豆瓣评分 5.6/10 from 131 users
◎豆瓣链接 https://movie.douban.com/subject/3688546/
◎片  长 Germany: 92 分钟(European Film Market)
◎导  演 Rob Cowan
◎主  演 马修·里沃德
      黛博拉·卡拉·安格
      吉娜·赫尔顿
      舍治·哈德
      恰拉·赞尼
      迈克尔·艾克朗德
      仙莎·拉德蕾

◎简  介 

  A screenwriting teacher is forced to live out the plot of a screenplay idea he stole from a student, who now seeks revenge.


  1. Video
  2. ID                                       : 1
  3. Format                                   : AVC
  4. Format/Info                              : Advanced Video Codec
  5. Format profile                           : [url=/cdn-cgi/l/email-protection][email protected][/url]
  6. Format settings                          : CABAC / 4 Ref Frames
  7. Format settings, CABAC                   : Yes
  8. Format settings, ReFrames                : 4 frames
  9. Codec ID                                 : V_MPEG4/ISO/AVC
  10. Duration                                 : 1 h 31 min
  11. Bit rate                                 : 10.9 Mb/s
  12. Width                                    : 1 920 pixels
  13. Height                                   : 1 080 pixels
  14. Display aspect ratio                     : 16:9
  15. Frame rate mode                          : Constant
  16. Frame rate                               : 23.976 (24000/1001) FPS
  17. Color space                              : YUV
  18. Chroma subsampling                       : 4:2:0
  19. Bit depth                                : 8 bits
  20. Scan type                                : Progressive
  21. Bits/(Pixel*Frame)                       : 0.220
  22. Stream size                              : 6.82 GiB (86%)
  23. Writing library                          : x264 core 128 r2216 198a7ea
  24. Encoding settings                        : cabac=1 / ref=4 / deblock=1:0:0 / analyse=0x3:0x113 / me=umh / subme=7 / psy=1 / psy_rd=1.00:0.00 / mixed_ref=1 / me_range=16 / chroma_me=1 / trellis=1 / 8x8dct=1 / cqm=0 / deadzone=21,11 / fast_pskip=1 / chroma_qp_offset=-2 / threads=6 / lookahead_threads=1 / sliced_threads=0 / nr=0 / decimate=1 / interlaced=0 / bluray_compat=0 / constrained_intra=0 / bframes=3 / b_pyramid=2 / b_adapt=1 / b_bias=0 / direct=1 / weightb=1 / open_gop=0 / weightp=2 / keyint=250 / keyint_min=23 / scenecut=40 / intra_refresh=0 / rc_lookahead=40 / rc=2pass / mbtree=1 / bitrate=10925 / ratetol=1.0 / qcomp=0.60 / qpmin=0 / qpmax=69 / qpstep=4 / cplxblur=20.0 / qblur=0.5 / ip_ratio=1.40 / aq=1:1.00
  25. Default                                  : Yes
  26. Forced                                   : No

  27. Audio
  28. ID                                       : 2
  29. Format                                   : DTS
  30. Format/Info                              : Digital Theater Systems
  31. Codec ID                                 : A_DTS
  32. Duration                                 : 1 h 31 min
  33. Bit rate mode                            : Constant
  34. Bit rate                                 : 1 509 kb/s
  35. Channel(s)                               : 6 channels
  36. Channel layout                           : C L R Ls Rs LFE
  37. Sampling rate                            : 48.0 kHz
  38. Frame rate                               : 93.750 FPS (512 SPF)
  39. Bit depth                                : 24 bits
  40. Compression mode                         : Lossy
  41. Stream size                              : 987 MiB (12%)
  42. Language                                 : English
  43. Default                                  : Yes
  44. Forced                                   : No

  45. Menu
  46. 00:00:00.000                             : en:00:00:00.000
  47. 00:08:23.628                             : en:00:08:23.628
  48. 00:23:57.561                             : en:00:23:57.561
  49. 00:41:12.345                             : en:00:41:12.345
  50. 00:48:03.089                             : en:00:48:03.089
  51. 01:00:41.721                             : en:01:00:41.721
  52. 01:12:30.179                             : en:01:12:30.179
  53. 01:25:55.567                             : en:01:25:55.567
复制代码

复制代码

信息删除/夺命留言 Messages.Deleted.2010.1080p.BluRay.x264-NOSCREENS 7.95GB-2.png 信息删除/夺命留言 Messages.Deleted.2010.1080p.BluRay.x264-NOSCREENS 7.95GB-3.png 信息删除/夺命留言 Messages.Deleted.2010.1080p.BluRay.x264-NOSCREENS 7.95GB-4.png





回复

使用道具 举报

懒得打字嘛,点击右侧快捷回复 【右侧内容,后台自定义】
您需要登录后才可以回帖 登录 | 立即注册

本版积分规则

QQ|Archiver|手机版|小黑屋|中国高清网 |网站地图

GMT+8, 2019-1-17 12:41 , Processed in 0.172117 second(s), 42 queries .

Powered by HDchina X3.4

Copyright 2017-2018©HDchina.All right reserved

返回顶部 联系我们