你所知道的4K资源这里全部都有 4K电影 | 4K视频 | 4K壁纸 | 4K MV 怎么播放4K视频 | 4K电视演示片

教你玩转4K私人与家庭影院存储 NAS组装 | 黑群辉 家庭/影院Nas论坛

4K家庭影院信号源与视频设备知识 4K蓝光高清播放机 - 那个品牌好? 4K投影机论坛 | 4K电视机论坛

手把手教你搭建属于自己的家庭影院 4K家庭影院案例 | 家庭影院音频 4K家庭影院论坛

查看: 168|回复: 2

[剧情片] 老人和枪/老人与枪 The.Old.Man.And.The.Gun.2018.1080p.BluRay.REMUX.AVC.DTS-HD.MA.5.1-FGT 26.92GB

[复制链接]

 成长值: 1670

级别:资源管理组

注册时间
2017-10-20
最后登录
2019-6-25
听众
0
收听
0
主题
78745
蓝光币
28946 枚
贡献
3070 点
发表于 2019-1-10 10:48:30 | 显示全部楼层 |阅读模式

老人和枪/老人与枪 The.Old.Man.And.The.Gun.2018.1080p.BluRay.REMUX.AVC.DTS-HD.MA.5.1-FGT 26.92GB-1.jpg
◎译  名 老人和枪 / 老人与枪
◎片  名 老人和枪 The Old Man and the Gun
◎年  代 2018
◎国  家 美国
◎类  别 剧情 / 笑剧 / 犯罪
◎语  言 英语
◎上映日期 2018-08-31(特柳赖德电影节) / 2018-09-28(美国)
◎IMDb评分  7.0/10 from 10,191 users
◎IMDb链接  http://www.imdb.com/title/tt2837574/
◎豆瓣评分 7.1/10 from 2045 users
◎豆瓣链接 https://movie.douban.com/subject/24299053/
◎片  长 93分钟
◎导  演 大卫·洛维
◎主  演 罗伯特·雷德福
      茜茜·斯派塞克
      卡西·阿弗莱克
      丹尼·格洛弗
      汤姆·威兹
      提卡·森普特
      阿勒·伊丽莎白·约翰逊
      蒂根·约翰逊
      吉因·琼斯
      约翰·大卫·华盛顿
      巴洛·雅克布斯
      奥古斯丁·弗里泽尔
      小伊塞亚·维特洛克
      丽雅·罗伯茨
      伊丽莎白·莫斯
      阿尔菲厄斯·格林
      基思·卡拉丹
      肯妮莎·汤普森
      罗伯特·朗斯特里特
      乔丹·崔威里恩
      托比·豪布鲁克斯
      克里斯汀·岱伊
      拉里·杰克·唐森
      帕姆·多尔蒂

◎简  介 

  奥斯卡影帝凯西·阿弗莱克(Casey Affleck)日前加盟新片《老人与枪》(Old Man And The Gun),该片由罗伯特·雷德福(Robert Redford)主演,按照《纽约客》上的一篇文章改编。
  福瑞斯特·塔克(Forrest Tucker)打从少年时就是个犯警之徒,抢银行就是他的职业,进过十几次班房的履历还让他练就了“逃狱”的本事——一共18次逃狱,比来一次时他已70岁高龄!
  《老人与枪》侧重刻画塔克晚年的一次抢劫,罗伯特·雷德福将饰演“塔克”,凯西·阿弗莱克饰演被这位怪异罪犯深深吸引的侦察。此外还有67岁的奥斯卡影后茜茜·斯帕塞克(Sissy Spacek),她会饰演爱上这名老年罪犯的密斯。
  《老人与枪》由大卫·劳瑞(David Lowery)导演,福克斯探照灯公司刊行,今年4月3日将在辛辛那提开机。

◎获奖情况 

  第76届金球奖 (2019)
  电影类 音乐/笑剧片最好男配角(提名) 罗伯特·雷德福

  第90届美国国家批评协会奖 (2018)
  十佳自力电影

  第23届金卫星奖 (2019)
  电影部分 剧情片最好男配角(提名) 罗伯特·雷德福


  1. Video
  2. ID                                       : 1
  3. Format                                   : AVC
  4. Format/Info                              : Advanced Video Codec
  5. Format profile                           : [url=/cdn-cgi/l/email-protection][email protected][/url]
  6. Format settings                          : CABAC / 4 Ref Frames
  7. Format settings, CABAC                   : Yes
  8. Format settings, ReFrames                : 4 frames
  9. Codec ID                                 : V_MPEG4/ISO/AVC
  10. Duration                                 : 1 h 33 min
  11. Bit rate mode                            : Variable
  12. Bit rate                                 : 34.6 Mb/s
  13. Maximum bit rate                         : 38.0 Mb/s
  14. Width                                    : 1 920 pixels
  15. Height                                   : 1 080 pixels
  16. Display aspect ratio                     : 16:9
  17. Frame rate mode                          : Constant
  18. Frame rate                               : 23.976 (24000/1001) FPS
  19. Color space                              : YUV
  20. Chroma subsampling                       : 4:2:0
  21. Bit depth                                : 8 bits
  22. Scan type                                : Progressive
  23. Bits/(Pixel*Frame)                       : 0.696
  24. Stream size                              : 22.5 GiB (83%)
  25. Title                                    : The.Old.Man.And.The.Gun.2018.1080p.BluRay.REMUX.AVC.DTS-HD.MA.5.1-FGT
  26. Language                                 : English
  27. Default                                  : No
  28. Forced                                   : No

  29. Audio #1
  30. ID                                       : 2
  31. Format                                   : DTS XLL
  32. Format/Info                              : Digital Theater Systems
  33. Commercial name                          : DTS-HD Master Audio
  34. Codec ID                                 : A_DTS
  35. Duration                                 : 1 h 33 min
  36. Bit rate mode                            : Variable
  37. Bit rate                                 : 3 595 kb/s
  38. Channel(s)                               : 6 channels
  39. Channel layout                           : C L R Ls Rs LFE
  40. Sampling rate                            : 48.0 kHz
  41. Frame rate                               : 93.750 FPS (512 SPF)
  42. Bit depth                                : 24 bits
  43. Compression mode                         : Lossless
  44. Stream size                              : 2.34 GiB (9%)
  45. Title                                    : The.Old.Man.And.The.Gun.2018.1080p.BluRay.REMUX.AVC.DTS-HD.MA.5.1-FGT
  46. Language                                 : English
  47. Default                                  : Yes
  48. Forced                                   : No

  49. Audio #2
  50. ID                                       : 3
  51. Format                                   : DTS
  52. Format/Info                              : Digital Theater Systems
  53. Codec ID                                 : A_DTS
  54. Duration                                 : 1 h 33 min
  55. Bit rate mode                            : Constant
  56. Bit rate                                 : 1 509 kb/s
  57. Channel(s)                               : 6 channels
  58. Channel layout                           : C L R Ls Rs LFE
  59. Sampling rate                            : 48.0 kHz
  60. Frame rate                               : 93.750 FPS (512 SPF)
  61. Bit depth                                : 24 bits
  62. Compression mode                         : Lossy
  63. Stream size                              : 1 004 MiB (4%)
  64. Title                                    : The.Old.Man.And.The.Gun.2018.1080p.BluRay.REMUX.AVC.DTS-HD.MA.5.1-FGT
  65. Language                                 : English
  66. Default                                  : No
  67. Forced                                   : No

  68. Audio #3
  69. ID                                       : 4
  70. Format                                   : AC-3
  71. Format/Info                              : Audio Coding 3
  72. Commercial name                          : Dolby Digital
  73. Codec ID                                 : A_AC3
  74. Duration                                 : 1 h 33 min
  75. Bit rate mode                            : Constant
  76. Bit rate                                 : 448 kb/s
  77. Channel(s)                               : 6 channels
  78. Channel layout                           : L R C LFE Ls Rs
  79. Sampling rate                            : 48.0 kHz
  80. Frame rate                               : 31.250 FPS (1536 SPF)
  81. Bit depth                                : 16 bits
  82. Compression mode                         : Lossy
  83. Stream size                              : 298 MiB (1%)
  84. Title                                    : The.Old.Man.And.The.Gun.2018.1080p.BluRay.REMUX.AVC.DTS-HD.MA.5.1-FGT
  85. Language                                 : English
  86. Service kind                             : Complete Main
  87. Default                                  : No
  88. Forced                                   : No

  89. Audio #4
  90. ID                                       : 5
  91. Format                                   : AC-3
  92. Format/Info                              : Audio Coding 3
  93. Commercial name                          : Dolby Digital
  94. Codec ID                                 : A_AC3
  95. Duration                                 : 1 h 33 min
  96. Bit rate mode                            : Constant
  97. Bit rate                                 : 448 kb/s
  98. Channel(s)                               : 6 channels
  99. Channel layout                           : L R C LFE Ls Rs
  100. Sampling rate                            : 48.0 kHz
  101. Frame rate                               : 31.250 FPS (1536 SPF)
  102. Bit depth                                : 16 bits
  103. Compression mode                         : Lossy
  104. Stream size                              : 298 MiB (1%)
  105. Title                                    : The.Old.Man.And.The.Gun.2018.1080p.BluRay.REMUX.AVC.DTS-HD.MA.5.1-FGT
  106. Language                                 : Spanish
  107. Service kind                             : Complete Main
  108. Default                                  : No
  109. Forced                                   : No

  110. Audio #5
  111. ID                                       : 6
  112. Format                                   : AC-3
  113. Format/Info                              : Audio Coding 3
  114. Commercial name                          : Dolby Digital
  115. Codec ID                                 : A_AC3
  116. Duration                                 : 1 h 33 min
  117. Bit rate mode                            : Constant
  118. Bit rate                                 : 448 kb/s
  119. Channel(s)                               : 6 channels
  120. Channel layout                           : L R C LFE Ls Rs
  121. Sampling rate                            : 48.0 kHz
  122. Frame rate                               : 31.250 FPS (1536 SPF)
  123. Bit depth                                : 16 bits
  124. Compression mode                         : Lossy
  125. Stream size                              : 298 MiB (1%)
  126. Title                                    : The.Old.Man.And.The.Gun.2018.1080p.BluRay.REMUX.AVC.DTS-HD.MA.5.1-FGT
  127. Language                                 : French
  128. Service kind                             : Complete Main
  129. Default                                  : No
  130. Forced                                   : No

  131. Audio #6
  132. ID                                       : 7
  133. Format                                   : AC-3
  134. Format/Info                              : Audio Coding 3
  135. Commercial name                          : Dolby Digital
  136. Codec ID                                 : A_AC3
  137. Duration                                 : 1 h 33 min
  138. Bit rate mode                            : Constant
  139. Bit rate                                 : 224 kb/s
  140. Channel(s)                               : 2 channels
  141. Channel layout                           : L R
  142. Sampling rate                            : 48.0 kHz
  143. Frame rate                               : 31.250 FPS (1536 SPF)
  144. Bit depth                                : 16 bits
  145. Compression mode                         : Lossy
  146. Stream size                              : 149 MiB (1%)
  147. Title                                    : The.Old.Man.And.The.Gun.2018.1080p.BluRay.REMUX.AVC.DTS-HD.MA.5.1-FGT
  148. Language                                 : English
  149. Service kind                             : Complete Main
  150. Default                                  : No
  151. Forced                                   : No

  152. Text #1
  153. ID                                       : 8
  154. Format                                   : PGS
  155. Muxing mode                              : zlib
  156. Codec ID                                 : S_HDMV/PGS
  157. Codec ID/Info                            : Picture based subtitle format used on BDs/HD-DVDs
  158. Duration                                 : 1 h 30 min
  159. Bit rate                                 : 45.9 kb/s
  160. Count of elements                        : 2818
  161. Stream size                              : 29.6 MiB (0%)
  162. Title                                    : English-PGS
  163. Language                                 : English
  164. Default                                  : Yes
  165. Forced                                   : No

  166. Text #2
  167. ID                                       : 9
  168. Format                                   : PGS
  169. Muxing mode                              : zlib
  170. Codec ID                                 : S_HDMV/PGS
  171. Codec ID/Info                            : Picture based subtitle format used on BDs/HD-DVDs
  172. Duration                                 : 1 h 32 min
  173. Bit rate                                 : 30.3 kb/s
  174. Count of elements                        : 1938
  175. Stream size                              : 20.1 MiB (0%)
  176. Title                                    : French-PGS
  177. Language                                 : French
  178. Default                                  : No
  179. Forced                                   : No

  180. Text #3
  181. ID                                       : 10
  182. Format                                   : PGS
  183. Muxing mode                              : zlib
  184. Codec ID                                 : S_HDMV/PGS
  185. Codec ID/Info                            : Picture based subtitle format used on BDs/HD-DVDs
  186. Duration                                 : 1 h 32 min
  187. Bit rate                                 : 1 803 b/s
  188. Count of elements                        : 82
  189. Stream size                              : 1.19 MiB (0%)
  190. Title                                    : French-FORCED-PGS
  191. Language                                 : French
  192. Default                                  : No
  193. Forced                                   : No

  194. Text #4
  195. ID                                       : 11
  196. Format                                   : PGS
  197. Muxing mode                              : zlib
  198. Codec ID                                 : S_HDMV/PGS
  199. Codec ID/Info                            : Picture based subtitle format used on BDs/HD-DVDs
  200. Duration                                 : 1 h 32 min
  201. Bit rate                                 : 32.0 kb/s
  202. Count of elements                        : 1932
  203. Stream size                              : 21.2 MiB (0%)
  204. Title                                    : Spanish-PGS
  205. Language                                 : Spanish
  206. Default                                  : No
  207. Forced                                   : No

  208. Text #5
  209. ID                                       : 12
  210. Format                                   : PGS
  211. Muxing mode                              : zlib
  212. Codec ID                                 : S_HDMV/PGS
  213. Codec ID/Info                            : Picture based subtitle format used on BDs/HD-DVDs
  214. Duration                                 : 1 h 9 min
  215. Bit rate                                 : 107 b/s
  216. Count of elements                        : 6
  217. Stream size                              : 55.0 KiB (0%)
  218. Title                                    : Spanish-FORCED-PGS
  219. Language                                 : Spanish
  220. Default                                  : No
  221. Forced                                   : No

  222. Text #6
  223. ID                                       : 13
  224. Format                                   : PGS
  225. Muxing mode                              : zlib
  226. Codec ID                                 : S_HDMV/PGS
  227. Codec ID/Info                            : Picture based subtitle format used on BDs/HD-DVDs
  228. Duration                                 : 1 h 32 min
  229. Bit rate                                 : 90.8 kb/s
  230. Count of elements                        : 3812
  231. Stream size                              : 60.3 MiB (0%)
  232. Title                                    : English-COMMENTARY-PGS
  233. Language                                 : English
  234. Default                                  : No
  235. Forced                                   : No

  236. Text #7
  237. ID                                       : 14
  238. Format                                   : PGS
  239. Muxing mode                              : zlib
  240. Codec ID                                 : S_HDMV/PGS
  241. Codec ID/Info                            : Picture based subtitle format used on BDs/HD-DVDs
  242. Duration                                 : 1 h 32 min
  243. Bit rate                                 : 88.1 kb/s
  244. Count of elements                        : 3874
  245. Stream size                              : 58.6 MiB (0%)
  246. Title                                    : Spanish-COMMENTARY-PGS
  247. Language                                 : Spanish
  248. Default                                  : No
  249. Forced                                   : No

  250. Text #8
  251. ID                                       : 15
  252. Format                                   : PGS
  253. Muxing mode                              : zlib
  254. Codec ID                                 : S_HDMV/PGS
  255. Codec ID/Info                            : Picture based subtitle format used on BDs/HD-DVDs
  256. Duration                                 : 1 h 32 min
  257. Bit rate                                 : 89.6 kb/s
  258. Count of elements                        : 3856
  259. Stream size                              : 59.6 MiB (0%)
  260. Title                                    : French-COMMENTARY-PGS
  261. Language                                 : French
  262. Default                                  : No
  263. Forced                                   : No

  264. Menu
  265. 00:00:00.000                             : en:Chapter 01
  266. 00:03:21.618                             : en:Chapter 02
  267. 00:08:18.498                             : en:Chapter 03
  268. 00:13:35.940                             : en:Chapter 04
  269. 00:19:34.506                             : en:Chapter 05
  270. 00:23:02.214                             : en:Chapter 06
  271. 00:26:35.760                             : en:Chapter 07
  272. 00:30:38.962                             : en:Chapter 08
  273. 00:34:17.472                             : en:Chapter 09
  274. 00:38:02.154                             : en:Chapter 10
  275. 00:41:30.696                             : en:Chapter 11
  276. 00:44:40.886                             : en:Chapter 12
  277. 00:48:19.229                             : en:Chapter 13
  278. 00:50:06.003                             : en:Chapter 14
  279. 00:53:44.304                             : en:Chapter 15
  280. 00:56:18.875                             : en:Chapter 16
  281. 01:00:09.981                             : en:Chapter 17
  282. 01:04:19.021                             : en:Chapter 18
  283. 01:09:40.968                             : en:Chapter 19
  284. 01:14:20.789                             : en:Chapter 20
  285. 01:18:02.594                             : en:Chapter 21
  286. 01:21:18.248                             : en:Chapter 22
  287. 01:24:33.943                             : en:Chapter 23
  288. 01:26:49.996                             : en:Chapter 24
复制代码

复制代码

老人和枪/老人与枪 The.Old.Man.And.The.Gun.2018.1080p.BluRay.REMUX.AVC.DTS-HD.MA.5.1-FGT 26.92GB-2.png 老人和枪/老人与枪 The.Old.Man.And.The.Gun.2018.1080p.BluRay.REMUX.AVC.DTS-HD.MA.5.1-FGT 26.92GB-3.png 老人和枪/老人与枪 The.Old.Man.And.The.Gun.2018.1080p.BluRay.REMUX.AVC.DTS-HD.MA.5.1-FGT 26.92GB-4.png





回复

使用道具 举报

级别:荣升主角 Lv.5

注册时间
2018-5-27
最后登录
2019-6-24
听众
10
收听
0
主题
0
蓝光币
135 枚
贡献
0 点
发表于 2019-1-11 21:44:29 | 显示全部楼层
感谢分享!
回复

使用道具 举报

级别:普通观众 Lv.2

注册时间
2018-1-23
最后登录
2019-2-16
听众
2
收听
0
主题
0
蓝光币
28 枚
贡献
0 点
发表于 2019-1-18 10:58:33 | 显示全部楼层

感谢楼主的无私分享!要想中国高清电影网好 就靠你我他
回复

使用道具 举报

*滑动验证:
懒得打字嘛,点击右侧快捷回复 【右侧内容,后台自定义】
您需要登录后才可以回帖 登录 | 立即注册

本版积分规则

QQ|Archiver|手机版|小黑屋| 中国高清网 |网站地图

GMT+8, 2019-6-25 01:15 , Processed in 0.229417 second(s), 46 queries .

Powered by HDchina X3.4

Copyright 2017-2019©HDchina.All right reserved

返回顶部 联系我们