你所知道的4K资源这里全部都有 4K电影 | 4K视频 | 4K壁纸 | 4K MV 怎么播放4K视频 | 4K电视演示片

教你玩转4K私人与家庭影院存储 NAS组装 | 黑群辉 家庭/影院Nas论坛

4K家庭影院信号源与视频设备知识 4K蓝光高清播放机 - 那个品牌好? 4K投影机论坛 | 4K电视机论坛

手把手教你搭建属于自己的家庭影院 4K家庭影院案例 | 家庭影院音频 4K家庭影院论坛

查看: 41|回复: 3

[喜剧片] 鸡皮疙瘩2:闹鬼万圣节/毛骨悚然2 Goosebumps.2.Haunted.Halloween.2018.1080p.BluRay.REMUX.AVC.DTS-HD.MA.5.1-FGT 21.41GB

[复制链接]

 成长值: 70

级别:资源管理组

UID
1
注册时间
2017-10-20
最后登录
2019-1-17
听众
0
收听
0
主题
73857
蓝光币
114350 枚
贡献
143666 点
发表于 2019-1-6 20:10:06 | 显示全部楼层 |阅读模式

鸡皮疙瘩2:闹鬼万圣节/毛骨悚然2 Goosebumps.2.Haunted.Halloween.2018.1080p.BluRay.REMUX.AVC.DTS-HD.MA.5.1-FGT 21.41GB-1.jpg
◎译  名 鸡皮疙瘩2:闹鬼万圣节 / 毛骨悚然2 / Goosebumps 2 / Goosebumps: Horrorland / 书中自有魔怪谷2: 翻生万圣节(港)
◎片  名 鸡皮疙瘩2:闹鬼万圣节 Goosebumps: Haunted Halloween
◎年  代 2018
◎国  家 美国
◎类  别 笑剧 / 可骇 / 奇异 / 冒险
◎语  言 英语
◎上映日期 2018-10-12(美国)
◎IMDb评分  5.7/10 from 6,080 users
◎IMDb链接  http://www.imdb.com/title/tt5664636/
◎豆瓣评分 5.3/10 from 1034 users
◎豆瓣链接 https://movie.douban.com/subject/26779967/
◎片  长 90分钟
◎导  演 阿里·桑德尔
◎主  演 温迪·麦克伦登-考威
      麦迪森·伊瑟曼
      杰里米·雷·泰勒
      郑肯
      卡里尔·哈里斯
      杰克·布莱克
      克里斯·帕内尔
      布赖斯·卡斯
      佩顿·威奇
      沙里·海德利
      克里斯蒂安·芬拉森
      马修·J·瓦斯奎斯
      考特尼·劳伦·卡明斯
      洁西·高伊
      肯德里克·克罗斯
      R·L·斯坦
      米克·温格特
      达林·德·保罗
      肖恩·麦克米伦
      帕蒂·舍尔哈斯

◎简  介 

  《鸡皮疙瘩2:闹鬼万圣节》(英语:Goosebumps 2: Haunted Halloween)是一部于2018年上映的美国可骇笑剧片,由阿里·桑德尔执导,罗布·李伯编剧。电影改编自R·L·史汀的儿童文学系列《鸡皮疙瘩》,为2015年电影《鸡皮疙瘩》的续集。由杰瑞米·雷·泰勒、麦迪森·伊瑟曼、杰克·布莱克和郑肯主演。


  1. Video
  2. ID                                       : 1
  3. Format                                   : AVC
  4. Format/Info                              : Advanced Video Codec
  5. Format profile                           : [url=/cdn-cgi/l/email-protection][email protected][/url]
  6. Format settings                          : CABAC / 2 Ref Frames
  7. Format settings, CABAC                   : Yes
  8. Format settings, ReFrames                : 2 frames
  9. Format settings, GOP                     : M=1, N=10
  10. Codec ID                                 : V_MPEG4/ISO/AVC
  11. Duration                                 : 1 h 29 min
  12. Bit rate mode                            : Variable
  13. Bit rate                                 : 24.9 Mb/s
  14. Width                                    : 1 920 pixels
  15. Height                                   : 1 080 pixels
  16. Display aspect ratio                     : 16:9
  17. Frame rate mode                          : Constant
  18. Frame rate                               : 23.976 (24000/1001) FPS
  19. Color space                              : YUV
  20. Chroma subsampling                       : 4:2:0
  21. Bit depth                                : 8 bits
  22. Scan type                                : Progressive
  23. Bits/(Pixel*Frame)                       : 0.501
  24. Stream size                              : 15.6 GiB (73%)
  25. Title                                    : Goosebumps.2.Haunted.Halloween.2018.1080p.BluRay.REMUX.AVC.DTS-HD.MA.5.1-FGT
  26. Language                                 : English
  27. Default                                  : No
  28. Forced                                   : No

  29. Audio #1
  30. ID                                       : 2
  31. Format                                   : DTS XLL
  32. Format/Info                              : Digital Theater Systems
  33. Commercial name                          : DTS-HD Master Audio
  34. Codec ID                                 : A_DTS
  35. Duration                                 : 1 h 29 min
  36. Bit rate mode                            : Variable
  37. Bit rate                                 : 1 971 kb/s
  38. Channel(s)                               : 6 channels
  39. Channel layout                           : C L R Ls Rs LFE
  40. Sampling rate                            : 48.0 kHz
  41. Frame rate                               : 93.750 FPS (512 SPF)
  42. Bit depth                                : 16 bits
  43. Compression mode                         : Lossless
  44. Stream size                              : 1.24 GiB (6%)
  45. Title                                    : Goosebumps.2.Haunted.Halloween.2018.1080p.BluRay.REMUX.AVC.DTS-HD.MA.5.1-FGT
  46. Language                                 : English
  47. Default                                  : Yes
  48. Forced                                   : No

  49. Audio #2
  50. ID                                       : 3
  51. Format                                   : DTS
  52. Format/Info                              : Digital Theater Systems
  53. Codec ID                                 : A_DTS
  54. Duration                                 : 1 h 29 min
  55. Bit rate mode                            : Constant
  56. Bit rate                                 : 1 509 kb/s
  57. Channel(s)                               : 6 channels
  58. Channel layout                           : C L R Ls Rs LFE
  59. Sampling rate                            : 48.0 kHz
  60. Frame rate                               : 93.750 FPS (512 SPF)
  61. Bit depth                                : 16 bits
  62. Compression mode                         : Lossy
  63. Stream size                              : 969 MiB (4%)
  64. Title                                    : Goosebumps.2.Haunted.Halloween.2018.1080p.BluRay.REMUX.AVC.DTS-HD.MA.5.1-FGT
  65. Language                                 : English
  66. Default                                  : No
  67. Forced                                   : No

  68. Audio #3
  69. ID                                       : 4
  70. Format                                   : AC-3
  71. Format/Info                              : Audio Coding 3
  72. Commercial name                          : Dolby Digital
  73. Codec ID                                 : A_AC3
  74. Duration                                 : 1 h 29 min
  75. Bit rate mode                            : Constant
  76. Bit rate                                 : 640 kb/s
  77. Channel(s)                               : 6 channels
  78. Channel layout                           : L R C LFE Ls Rs
  79. Sampling rate                            : 48.0 kHz
  80. Frame rate                               : 31.250 FPS (1536 SPF)
  81. Bit depth                                : 16 bits
  82. Compression mode                         : Lossy
  83. Stream size                              : 411 MiB (2%)
  84. Title                                    : Goosebumps.2.Haunted.Halloween.2018.1080p.BluRay.REMUX.AVC.DTS-HD.MA.5.1-FGT
  85. Language                                 : English
  86. Service kind                             : Complete Main
  87. Default                                  : No
  88. Forced                                   : No

  89. Audio #4
  90. ID                                       : 5
  91. Format                                   : DTS XLL
  92. Format/Info                              : Digital Theater Systems
  93. Commercial name                          : DTS-HD Master Audio
  94. Codec ID                                 : A_DTS
  95. Duration                                 : 1 h 29 min
  96. Bit rate mode                            : Variable
  97. Bit rate                                 : 2 241 kb/s
  98. Channel(s)                               : 6 channels
  99. Channel layout                           : C L R Ls Rs LFE
  100. Sampling rate                            : 48.0 kHz
  101. Frame rate                               : 93.750 FPS (512 SPF)
  102. Bit depth                                : 16 bits
  103. Compression mode                         : Lossless
  104. Stream size                              : 1.41 GiB (7%)
  105. Title                                    : Goosebumps.2.Haunted.Halloween.2018.1080p.BluRay.REMUX.AVC.DTS-HD.MA.5.1-FGT
  106. Language                                 : French
  107. Default                                  : No
  108. Forced                                   : No

  109. Audio #5
  110. ID                                       : 6
  111. Format                                   : DTS
  112. Format/Info                              : Digital Theater Systems
  113. Codec ID                                 : A_DTS
  114. Duration                                 : 1 h 29 min
  115. Bit rate mode                            : Constant
  116. Bit rate                                 : 1 509 kb/s
  117. Channel(s)                               : 6 channels
  118. Channel layout                           : C L R Ls Rs LFE
  119. Sampling rate                            : 48.0 kHz
  120. Frame rate                               : 93.750 FPS (512 SPF)
  121. Bit depth                                : 16 bits
  122. Compression mode                         : Lossy
  123. Stream size                              : 969 MiB (4%)
  124. Title                                    : Goosebumps.2.Haunted.Halloween.2018.1080p.BluRay.REMUX.AVC.DTS-HD.MA.5.1-FGT
  125. Language                                 : French
  126. Default                                  : No
  127. Forced                                   : No

  128. Audio #6
  129. ID                                       : 7
  130. Format                                   : AC-3
  131. Format/Info                              : Audio Coding 3
  132. Commercial name                          : Dolby Digital
  133. Codec ID                                 : A_AC3
  134. Duration                                 : 1 h 29 min
  135. Bit rate mode                            : Constant
  136. Bit rate                                 : 640 kb/s
  137. Channel(s)                               : 6 channels
  138. Channel layout                           : L R C LFE Ls Rs
  139. Sampling rate                            : 48.0 kHz
  140. Frame rate                               : 31.250 FPS (1536 SPF)
  141. Bit depth                                : 16 bits
  142. Compression mode                         : Lossy
  143. Stream size                              : 411 MiB (2%)
  144. Title                                    : Goosebumps.2.Haunted.Halloween.2018.1080p.BluRay.REMUX.AVC.DTS-HD.MA.5.1-FGT
  145. Language                                 : French
  146. Service kind                             : Complete Main
  147. Default                                  : No
  148. Forced                                   : No

  149. Audio #7
  150. ID                                       : 8
  151. Format                                   : AC-3
  152. Format/Info                              : Audio Coding 3
  153. Commercial name                          : Dolby Digital
  154. Codec ID                                 : A_AC3
  155. Duration                                 : 1 h 29 min
  156. Bit rate mode                            : Constant
  157. Bit rate                                 : 640 kb/s
  158. Channel(s)                               : 6 channels
  159. Channel layout                           : L R C LFE Ls Rs
  160. Sampling rate                            : 48.0 kHz
  161. Frame rate                               : 31.250 FPS (1536 SPF)
  162. Bit depth                                : 16 bits
  163. Compression mode                         : Lossy
  164. Stream size                              : 411 MiB (2%)
  165. Title                                    : Goosebumps.2.Haunted.Halloween.2018.1080p.BluRay.REMUX.AVC.DTS-HD.MA.5.1-FGT
  166. Language                                 : Spanish
  167. Service kind                             : Complete Main
  168. Default                                  : No
  169. Forced                                   : No

  170. Text #1
  171. ID                                       : 9
  172. Format                                   : PGS
  173. Muxing mode                              : zlib
  174. Codec ID                                 : S_HDMV/PGS
  175. Codec ID/Info                            : Picture based subtitle format used on BDs/HD-DVDs
  176. Duration                                 : 1 h 28 min
  177. Bit rate                                 : 41.1 kb/s
  178. Count of elements                        : 2761
  179. Stream size                              : 26.1 MiB (0%)
  180. Title                                    : English-PGS
  181. Language                                 : English
  182. Default                                  : Yes
  183. Forced                                   : No

  184. Text #2
  185. ID                                       : 10
  186. Format                                   : PGS
  187. Muxing mode                              : zlib
  188. Codec ID                                 : S_HDMV/PGS
  189. Codec ID/Info                            : Picture based subtitle format used on BDs/HD-DVDs
  190. Duration                                 : 1 h 27 min
  191. Bit rate                                 : 34.5 kb/s
  192. Count of elements                        : 2179
  193. Stream size                              : 21.6 MiB (0%)
  194. Title                                    : English-SDH-PGS
  195. Language                                 : English
  196. Default                                  : No
  197. Forced                                   : No

  198. Text #3
  199. ID                                       : 11
  200. Format                                   : PGS
  201. Muxing mode                              : zlib
  202. Codec ID                                 : S_HDMV/PGS
  203. Codec ID/Info                            : Picture based subtitle format used on BDs/HD-DVDs
  204. Duration                                 : 1 h 28 min
  205. Bit rate                                 : 23.5 kb/s
  206. Count of elements                        : 2037
  207. Stream size                              : 14.9 MiB (0%)
  208. Title                                    : French-PGS
  209. Language                                 : French
  210. Default                                  : No
  211. Forced                                   : No

  212. Text #4
  213. ID                                       : 12
  214. Format                                   : PGS
  215. Muxing mode                              : zlib
  216. Codec ID                                 : S_HDMV/PGS
  217. Codec ID/Info                            : Picture based subtitle format used on BDs/HD-DVDs
  218. Duration                                 : 1 h 28 min
  219. Bit rate                                 : 32.5 kb/s
  220. Count of elements                        : 2243
  221. Stream size                              : 20.6 MiB (0%)
  222. Title                                    : Spanish-PGS
  223. Language                                 : Spanish
  224. Default                                  : No
  225. Forced                                   : No

  226. Text #5
  227. ID                                       : 13
  228. Format                                   : PGS
  229. Muxing mode                              : zlib
  230. Codec ID                                 : S_HDMV/PGS
  231. Codec ID/Info                            : Picture based subtitle format used on BDs/HD-DVDs
  232. Duration                                 : 1 h 28 min
  233. Bit rate                                 : 241 b/s
  234. Count of elements                        : 12
  235. Stream size                              : 156 KiB (0%)
  236. Title                                    : Spanish-FORCED-PGS
  237. Language                                 : Spanish
  238. Default                                  : No
  239. Forced                                   : No

  240. Text #6
  241. ID                                       : 14
  242. Format                                   : PGS
  243. Muxing mode                              : zlib
  244. Codec ID                                 : S_HDMV/PGS
  245. Codec ID/Info                            : Picture based subtitle format used on BDs/HD-DVDs
  246. Duration                                 : 49 min 40 s
  247. Bit rate                                 : 243 b/s
  248. Count of elements                        : 8
  249. Stream size                              : 88.5 KiB (0%)
  250. Title                                    : French-FORCED-PGS
  251. Language                                 : French
  252. Default                                  : No
  253. Forced                                   : No

  254. Text #7
  255. ID                                       : 15
  256. Format                                   : PGS
  257. Muxing mode                              : zlib
  258. Codec ID                                 : S_HDMV/PGS
  259. Codec ID/Info                            : Picture based subtitle format used on BDs/HD-DVDs
  260. Duration                                 : 49 min 40 s
  261. Bit rate                                 : 243 b/s
  262. Count of elements                        : 8
  263. Stream size                              : 88.5 KiB (0%)
  264. Title                                    : French-FORCED-PGS
  265. Language                                 : French
  266. Default                                  : No
  267. Forced                                   : No

  268. Menu
  269. 00:00:00.000                             : en:Chapter 01
  270. 00:04:33.189                             : en:Chapter 02
  271. 00:11:16.050                             : en:Chapter 03
  272. 00:18:43.789                             : en:Chapter 04
  273. 00:21:41.633                             : en:Chapter 05
  274. 00:27:23.224                             : en:Chapter 06
  275. 00:32:36.871                             : en:Chapter 07
  276. 00:37:48.099                             : en:Chapter 08
  277. 00:45:14.837                             : en:Chapter 09
  278. 00:50:12.050                             : en:Chapter 10
  279. 00:56:17.916                             : en:Chapter 11
  280. 01:00:35.757                             : en:Chapter 12
  281. 01:05:28.132                             : en:Chapter 13
  282. 01:09:25.077                             : en:Chapter 14
  283. 01:14:37.639                             : en:Chapter 15
  284. 01:20:29.324                             : en:Chapter 16
复制代码

复制代码

鸡皮疙瘩2:闹鬼万圣节/毛骨悚然2 Goosebumps.2.Haunted.Halloween.2018.1080p.BluRay.REMUX.AVC.DTS-HD.MA.5.1-FGT 21.41GB-2.png 鸡皮疙瘩2:闹鬼万圣节/毛骨悚然2 Goosebumps.2.Haunted.Halloween.2018.1080p.BluRay.REMUX.AVC.DTS-HD.MA.5.1-FGT 21.41GB-3.png 鸡皮疙瘩2:闹鬼万圣节/毛骨悚然2 Goosebumps.2.Haunted.Halloween.2018.1080p.BluRay.REMUX.AVC.DTS-HD.MA.5.1-FGT 21.41GB-4.png





回复

使用道具 举报

级别:专业龙套 Lv.4

UID
3899
注册时间
2018-5-20
最后登录
2019-1-17
听众
2
收听
0
主题
0
蓝光币
75 枚
贡献
0 点
发表于 2019-1-7 13:14:44 | 显示全部楼层
非常感谢资源分享
回复

使用道具 举报

级别:普通观众 Lv.2

UID
2038
注册时间
2018-3-8
最后登录
2019-1-16
听众
1
收听
0
主题
0
蓝光币
1 枚
贡献
0 点
发表于 2019-1-7 15:23:28 | 显示全部楼层
感谢楼主分享,好片子值得一看
回复

使用道具 举报

级别:专业龙套 Lv.4

UID
4064
注册时间
2018-5-27
最后登录
2019-1-13
听众
3
收听
0
主题
0
蓝光币
1 枚
贡献
0 点
发表于 6 天前 | 显示全部楼层
感谢分享!
回复

使用道具 举报

懒得打字嘛,点击右侧快捷回复 【右侧内容,后台自定义】
您需要登录后才可以回帖 登录 | 立即注册

本版积分规则

QQ|Archiver|手机版|小黑屋|中国高清网 |网站地图

GMT+8, 2019-1-17 13:34 , Processed in 0.199395 second(s), 41 queries .

Powered by HDchina X3.4

Copyright 2017-2018©HDchina.All right reserved

返回顶部 联系我们