你所知道的4K资源这里全部都有 4K电影 | 4K视频 | 4K壁纸 | 4K MV 怎么播放4K视频 | 4K电视演示片

教你玩转4K私人与家庭影院存储 NAS组装 | 黑群辉 家庭/影院Nas论坛

4K家庭影院信号源与视频设备知识 4K蓝光高清播放机 - 那个品牌好? 4K投影机论坛 | 4K电视机论坛

手把手教你搭建属于自己的家庭影院 4K家庭影院案例 | 家庭影院音频 4K家庭影院论坛

查看: 268|回复: 3

[动作片] 冰封侠:时空行者/冰封侠:时空大战 Iceman.The.Time.Traveller.2018.CHINESE.1080p.BluRay.REMUX.AVC.TrueHD.5.1-FGT 19.53GB

[复制链接]

 成长值: 1670

级别:资源管理组

注册时间
2017-10-20
最后登录
2019-6-25
听众
0
收听
0
主题
78745
蓝光币
28946 枚
贡献
3070 点
发表于 2019-1-4 11:25:14 | 显示全部楼层 |阅读模式

冰封侠:时空行者/冰封侠:时空大战 Iceman.The.Time.Traveller.2018.CHINESE.1080p.BluRay.REMUX.AVC.TrueHD.5.1-FGT 19.53GB-1.jpg
◎译  名 冰封侠:时空行者 / 冰封侠:时空大战(港) / 时空行者 / 冰封:永久之门 / 冰封2:永久之门 / 冰封2:回到未来 / 3D冰封侠2 / The Frozen Hero II
◎片  名 冰封侠:时空行者
◎年  代 2018
◎国  家 中国大陆 / 香港
◎类  别 行动 / 奇异
◎语  言 汉语普通话 / 粤语
◎上映日期 2018-11-02(中国大陆)
◎IMDb评分  3.7/10 from 139 users
◎IMDb链接  http://www.imdb.com/title/tt2993848/
◎豆瓣评分 2.6/10 from 4758 users
◎豆瓣链接 https://movie.douban.com/subject/25300674/
◎片  长 87分钟
◎导  演 叶伟民
◎主  演 甄子丹
      黄圣依
      王宝强
      任达华
      喻亢
      江疏影
      仓田保昭
      鲍起静
      林雪
      庄思敏
      胡明
      吴俊余
      王文绮

◎简  介 

  明代上将军贺英操纵时空金球终究重返明代,与锦衣卫兄弟萨獒得悉了倭寇和朝廷奸党之间足以倾覆皇权的谋害,连绵400年的惊天危机一触即发。贺英也在朱颜知己小美的帮助下起头了抗倭锄奸和庇护族人的战役。


  1. Video
  2. ID                                       : 1
  3. Format                                   : AVC
  4. Format/Info                              : Advanced Video Codec
  5. Format profile                           : [url=/cdn-cgi/l/email-protection][email protected][/url]
  6. Format settings                          : CABAC / 4 Ref Frames
  7. Format settings, CABAC                   : Yes
  8. Format settings, ReFrames                : 4 frames
  9. Codec ID                                 : V_MPEG4/ISO/AVC
  10. Duration                                 : 1 h 27 min
  11. Bit rate mode                            : Variable
  12. Bit rate                                 : 26.0 Mb/s
  13. Maximum bit rate                         : 34.0 Mb/s
  14. Width                                    : 1 920 pixels
  15. Height                                   : 1 080 pixels
  16. Display aspect ratio                     : 16:9
  17. Frame rate mode                          : Constant
  18. Frame rate                               : 24.000 FPS
  19. Standard                                 : NTSC
  20. Color space                              : YUV
  21. Chroma subsampling                       : 4:2:0
  22. Bit depth                                : 8 bits
  23. Scan type                                : Progressive
  24. Bits/(Pixel*Frame)                       : 0.522
  25. Stream size                              : 15.8 GiB (81%)
  26. Title                                    : Iceman.The.Time.Traveller.2018.CHINESE.1080p.BluRay.REMUX.AVC.TrueHD.5.1-FGT
  27. Language                                 : English
  28. Default                                  : No
  29. Forced                                   : No
  30. Color range                              : Limited
  31. Color primaries                          : BT.709
  32. Transfer characteristics                 : BT.709
  33. Matrix coefficients                      : BT.709

  34. Audio #1
  35. ID                                       : 2
  36. Format                                   : MLP FBA
  37. Format/Info                              : Meridian Lossless Packing FBA
  38. Commercial name                          : Dolby TrueHD
  39. Codec ID                                 : A_TRUEHD
  40. Duration                                 : 1 h 27 min
  41. Bit rate mode                            : Variable
  42. Bit rate                                 : 2 323 kb/s
  43. Maximum bit rate                         : 3 912 kb/s
  44. Channel(s)                               : 6 channels
  45. Channel layout                           : L R C LFE Ls Rs
  46. Sampling rate                            : 96.0 kHz
  47. Frame rate                               : 1 200.000 FPS (80 SPF)
  48. Compression mode                         : Lossless
  49. Stream size                              : 1.41 GiB (7%)
  50. Title                                    : Iceman.The.Time.Traveller.2018.CHINESE.1080p.BluRay.REMUX.AVC.TrueHD.5.1-FGT
  51. Language                                 : Chinese
  52. Default                                  : Yes
  53. Forced                                   : No

  54. Audio #2
  55. ID                                       : 3
  56. Format                                   : AC-3
  57. Format/Info                              : Audio Coding 3
  58. Commercial name                          : Dolby Digital
  59. Codec ID                                 : A_AC3
  60. Duration                                 : 1 h 27 min
  61. Bit rate mode                            : Constant
  62. Bit rate                                 : 640 kb/s
  63. Channel(s)                               : 6 channels
  64. Channel layout                           : L R C LFE Ls Rs
  65. Sampling rate                            : 48.0 kHz
  66. Frame rate                               : 31.250 FPS (1536 SPF)
  67. Bit depth                                : 16 bits
  68. Compression mode                         : Lossy
  69. Stream size                              : 399 MiB (2%)
  70. Title                                    : Iceman.The.Time.Traveller.2018.CHINESE.1080p.BluRay.REMUX.AVC.TrueHD.5.1-FGT
  71. Language                                 : Chinese
  72. Service kind                             : Complete Main
  73. Default                                  : No
  74. Forced                                   : No

  75. Audio #3
  76. ID                                       : 4
  77. Format                                   : MLP FBA
  78. Format/Info                              : Meridian Lossless Packing FBA
  79. Commercial name                          : Dolby TrueHD
  80. Codec ID                                 : A_TRUEHD
  81. Duration                                 : 1 h 27 min
  82. Bit rate mode                            : Variable
  83. Bit rate                                 : 2 324 kb/s
  84. Maximum bit rate                         : 3 912 kb/s
  85. Channel(s)                               : 6 channels
  86. Channel layout                           : L R C LFE Ls Rs
  87. Sampling rate                            : 96.0 kHz
  88. Frame rate                               : 1 200.000 FPS (80 SPF)
  89. Compression mode                         : Lossless
  90. Stream size                              : 1.41 GiB (7%)
  91. Title                                    : Iceman.The.Time.Traveller.2018.CHINESE.1080p.BluRay.REMUX.AVC.TrueHD.5.1-FGT
  92. Language                                 : Chinese
  93. Default                                  : No
  94. Forced                                   : No

  95. Audio #4
  96. ID                                       : 5
  97. Format                                   : AC-3
  98. Format/Info                              : Audio Coding 3
  99. Commercial name                          : Dolby Digital
  100. Codec ID                                 : A_AC3
  101. Duration                                 : 1 h 27 min
  102. Bit rate mode                            : Constant
  103. Bit rate                                 : 640 kb/s
  104. Channel(s)                               : 6 channels
  105. Channel layout                           : L R C LFE Ls Rs
  106. Sampling rate                            : 48.0 kHz
  107. Frame rate                               : 31.250 FPS (1536 SPF)
  108. Bit depth                                : 16 bits
  109. Compression mode                         : Lossy
  110. Stream size                              : 399 MiB (2%)
  111. Title                                    : Iceman.The.Time.Traveller.2018.CHINESE.1080p.BluRay.REMUX.AVC.TrueHD.5.1-FGT
  112. Language                                 : Chinese
  113. Service kind                             : Complete Main
  114. Default                                  : No
  115. Forced                                   : No

  116. Text #1
  117. ID                                       : 6
  118. Format                                   : PGS
  119. Muxing mode                              : zlib
  120. Codec ID                                 : S_HDMV/PGS
  121. Codec ID/Info                            : Picture based subtitle format used on BDs/HD-DVDs
  122. Duration                                 : 1 h 21 min
  123. Bit rate                                 : 36.2 kb/s
  124. Count of elements                        : 1899
  125. Stream size                              : 21.1 MiB (0%)
  126. Title                                    : English-PGS
  127. Language                                 : English
  128. Default                                  : Yes
  129. Forced                                   : Yes

  130. Text #2
  131. ID                                       : 7
  132. Format                                   : PGS
  133. Muxing mode                              : zlib
  134. Codec ID                                 : S_HDMV/PGS
  135. Codec ID/Info                            : Picture based subtitle format used on BDs/HD-DVDs
  136. Duration                                 : 1 h 21 min
  137. Bit rate                                 : 29.3 kb/s
  138. Count of elements                        : 1893
  139. Stream size                              : 17.1 MiB (0%)
  140. Title                                    : Chinese-PGS
  141. Language                                 : Chinese
  142. Default                                  : No
  143. Forced                                   : No

  144. Text #3
  145. ID                                       : 8
  146. Format                                   : PGS
  147. Muxing mode                              : zlib
  148. Codec ID                                 : S_HDMV/PGS
  149. Codec ID/Info                            : Picture based subtitle format used on BDs/HD-DVDs
  150. Duration                                 : 1 h 21 min
  151. Bit rate                                 : 28.7 kb/s
  152. Count of elements                        : 1897
  153. Stream size                              : 16.7 MiB (0%)
  154. Title                                    : Chinese-PGS
  155. Language                                 : Chinese
  156. Default                                  : No
  157. Forced                                   : No

  158. Menu
  159. 00:00:00.000                             : en:Chapter 01
  160. 00:08:11.458                             : en:Chapter 02
  161. 00:14:17.083                             : en:Chapter 03
  162. 00:22:23.166                             : en:Chapter 04
  163. 00:29:38.583                             : en:Chapter 05
  164. 00:37:04.750                             : en:Chapter 06
  165. 00:43:57.208                             : en:Chapter 07
  166. 00:50:31.416                             : en:Chapter 08
  167. 00:59:27.708                             : en:Chapter 09
  168. 01:04:19.958                             : en:Chapter 10
  169. 01:12:35.041                             : en:Chapter 11
  170. 01:19:37.458                             : en:Chapter 12
复制代码

复制代码

冰封侠:时空行者/冰封侠:时空大战 Iceman.The.Time.Traveller.2018.CHINESE.1080p.BluRay.REMUX.AVC.TrueHD.5.1-FGT 19.53GB-2.png 冰封侠:时空行者/冰封侠:时空大战 Iceman.The.Time.Traveller.2018.CHINESE.1080p.BluRay.REMUX.AVC.TrueHD.5.1-FGT 19.53GB-3.png 冰封侠:时空行者/冰封侠:时空大战 Iceman.The.Time.Traveller.2018.CHINESE.1080p.BluRay.REMUX.AVC.TrueHD.5.1-FGT 19.53GB-4.png





回复

使用道具 举报

级别:群众演员 Lv.3

注册时间
2018-12-11
最后登录
2019-6-20
听众
7
收听
0
主题
0
蓝光币
246 枚
贡献
0 点
QQ
发表于 2019-1-4 14:13:54 | 显示全部楼层
谢谢分享!!!!
回复

使用道具 举报

级别:禁止发言

注册时间
2018-2-26
最后登录
2019-6-6
听众
7
收听
0
主题
0
蓝光币
326 枚
贡献
0 点
发表于 2019-1-5 10:33:11 | 显示全部楼层
提示: 作者被禁止或删除 内容自动屏蔽
回复

使用道具 举报

级别:荣升主角 Lv.5

注册时间
2018-5-27
最后登录
2019-6-24
听众
10
收听
0
主题
0
蓝光币
135 枚
贡献
0 点
发表于 2019-1-11 21:37:19 | 显示全部楼层
感谢分享!
回复

使用道具 举报

*滑动验证:
懒得打字嘛,点击右侧快捷回复 【右侧内容,后台自定义】
您需要登录后才可以回帖 登录 | 立即注册

本版积分规则

QQ|Archiver|手机版|小黑屋| 中国高清网 |网站地图

GMT+8, 2019-6-25 01:14 , Processed in 0.190269 second(s), 47 queries .

Powered by HDchina X3.4

Copyright 2017-2019©HDchina.All right reserved

返回顶部 联系我们