你所知道的4K资源这里全部都有 4K电影 | 4K视频 | 4K壁纸 | 4K MV 怎么播放4K视频 | 4K电视演示片

教你玩转4K私人与家庭影院存储 NAS组装 | 黑群辉 家庭/影院Nas论坛

4K家庭影院信号源与视频设备知识 4K蓝光高清播放机 - 那个品牌好? 4K投影机论坛 | 4K电视机论坛

手把手教你搭建属于自己的家庭影院 4K家庭影院案例 | 家庭影院音频 4K家庭影院论坛

查看: 178|回复: 1

[剧情片] 铁血中尉/血洒高棉 Platoon.Leader.1988.1080p.BluRay.REMUX.AVC.DTS-HD.MA.2.0-FGT 17.08GB

[复制链接]

 成长值: 1600

级别:资源管理组

注册时间
2017-10-20
最后登录
2019-6-18
听众
0
收听
0
主题
78712
蓝光币
27006 枚
贡献
3037 点
发表于 2019-1-3 10:27:28 | 显示全部楼层 |阅读模式

铁血中尉/血洒高棉 Platoon.Leader.1988.1080p.BluRay.REMUX.AVC.DTS-HD.MA.2.0-FGT 17.08GB-1.jpg
◎译  名 铁血中尉 / 血洒高棉
◎片  名 铁血中尉 Platoon Leader
◎年  代 1988
◎国  家 美国
◎类  别 剧情 / 战争
◎语  言 英语
◎上映日期 无尚映时候
◎IMDb评分  5.4/10 from 1,363 users
◎IMDb链接  http://www.imdb.com/title/tt0095877/
◎豆瓣评分 今朝无人评价
◎豆瓣链接 https://movie.douban.com/subject/1300339/
◎片  长 97 分钟
◎导  演 亚伦·诺瑞斯
◎主  演 迈克尔·杜迪考夫
      罗伯特·F·莱昂斯

◎简  介 

  严酷的军校练习,能否能培养一位能上越南疆场的斗士?杰夫奈特(迈克尔·杜迪考夫 饰)是一位刚从西点军校结业的年轻中尉,被派往越南一个小型军事基地驻守,基地中的别的兵士都是身经百战的沙场宿将,年轻的杰夫经常是他们讽刺的工具。还好,在主座麦纳玛拉(罗伯特·F·莱昂斯 饰)的指导下,他逐步抓到窍门,并有才能率领兵士们在森林中作例行的巡查。一日,他得知越共预备进犯他们的基地与四周的村子,因而,杰夫决议在仇敌未行动前先发制人。没想到,由于通讯器械故障,使得他们的攻击失利。身处越南森林的杰夫,能否能发挥斗士精神,冲破重围、满身而退呢?


  1. Video
  2. ID                                       : 1
  3. Format                                   : AVC
  4. Format/Info                              : Advanced Video Codec
  5. Format profile                           : [url=/cdn-cgi/l/email-protection][email protected][/url]
  6. Format settings                          : CABAC / 4 Ref Frames
  7. Format settings, CABAC                   : Yes
  8. Format settings, ReFrames                : 4 frames
  9. Codec ID                                 : V_MPEG4/ISO/AVC
  10. Duration                                 : 1 h 36 min
  11. Bit rate mode                            : Variable
  12. Bit rate                                 : 22.4 Mb/s
  13. Maximum bit rate                         : 38.0 Mb/s
  14. Width                                    : 1 920 pixels
  15. Height                                   : 1 080 pixels
  16. Display aspect ratio                     : 16:9
  17. Frame rate mode                          : Constant
  18. Frame rate                               : 23.976 (24000/1001) FPS
  19. Color space                              : YUV
  20. Chroma subsampling                       : 4:2:0
  21. Bit depth                                : 8 bits
  22. Scan type                                : Progressive
  23. Bits/(Pixel*Frame)                       : 0.450
  24. Stream size                              : 15.0 GiB (88%)
  25. Title                                    : Platoon.Leader.1988.1080p.BluRay.REMUX.AVC.DTS-HD.MA.2.0-FGT
  26. Language                                 : English
  27. Default                                  : No
  28. Forced                                   : No

  29. Audio #1
  30. ID                                       : 2
  31. Format                                   : DTS XLL
  32. Format/Info                              : Digital Theater Systems
  33. Commercial name                          : DTS-HD Master Audio
  34. Codec ID                                 : A_DTS
  35. Duration                                 : 1 h 36 min
  36. Bit rate mode                            : Variable
  37. Bit rate                                 : 1 563 kb/s
  38. Channel(s)                               : 2 channels
  39. Channel layout                           : L R
  40. Sampling rate                            : 48.0 kHz
  41. Frame rate                               : 93.750 FPS (512 SPF)
  42. Bit depth                                : 16 bits
  43. Compression mode                         : Lossless
  44. Stream size                              : 1.05 GiB (6%)
  45. Title                                    : Platoon.Leader.1988.1080p.BluRay.REMUX.AVC.DTS-HD.MA.2.0-FGT
  46. Language                                 : English
  47. Default                                  : Yes
  48. Forced                                   : No

  49. Audio #2
  50. ID                                       : 3
  51. Format                                   : DTS
  52. Format/Info                              : Digital Theater Systems
  53. Codec ID                                 : A_DTS
  54. Duration                                 : 1 h 36 min
  55. Bit rate mode                            : Constant
  56. Bit rate                                 : 1 509 kb/s
  57. Channel(s)                               : 2 channels
  58. Channel layout                           : L R
  59. Sampling rate                            : 48.0 kHz
  60. Frame rate                               : 93.750 FPS (512 SPF)
  61. Bit depth                                : 16 bits
  62. Compression mode                         : Lossy
  63. Stream size                              : 1.01 GiB (6%)
  64. Title                                    : Platoon.Leader.1988.1080p.BluRay.REMUX.AVC.DTS-HD.MA.2.0-FGT
  65. Language                                 : English
  66. Default                                  : No
  67. Forced                                   : No

  68. Menu
  69. 00:00:00.000                             : en:Chapter 00
  70. 00:11:32.817                             : en:Chapter 01
  71. 00:21:24.908                             : en:Chapter 02
  72. 00:34:15.720                             : en:Chapter 03
  73. 00:48:36.163                             : en:Chapter 04
  74. 00:59:13.299                             : en:Chapter 05
  75. 01:09:58.694                             : en:Chapter 06
  76. 01:21:54.951                             : en:Chapter 07
复制代码

复制代码

铁血中尉/血洒高棉 Platoon.Leader.1988.1080p.BluRay.REMUX.AVC.DTS-HD.MA.2.0-FGT 17.08GB-2.png 铁血中尉/血洒高棉 Platoon.Leader.1988.1080p.BluRay.REMUX.AVC.DTS-HD.MA.2.0-FGT 17.08GB-3.png 铁血中尉/血洒高棉 Platoon.Leader.1988.1080p.BluRay.REMUX.AVC.DTS-HD.MA.2.0-FGT 17.08GB-4.png





回复

使用道具 举报

级别:群众演员 Lv.3

注册时间
2019-1-3
最后登录
2019-2-22
听众
4
收听
0
主题
0
蓝光币
8 枚
贡献
0 点
QQ
发表于 2019-1-5 17:11:52 | 显示全部楼层
楼主发贴辛苦了,谢谢楼主分享!我觉得中国高清电影网是注册对了!
回复

使用道具 举报

*滑动验证:
懒得打字嘛,点击右侧快捷回复 【右侧内容,后台自定义】
您需要登录后才可以回帖 登录 | 立即注册

本版积分规则

QQ|Archiver|手机版|小黑屋| 中国高清网 |网站地图

GMT+8, 2019-6-18 19:48 , Processed in 0.171761 second(s), 45 queries .

Powered by HDchina X3.4

Copyright 2017-2019©HDchina.All right reserved

返回顶部 联系我们