你所知道的4K资源这里全部都有 4K电影 | 4K视频 | 4K壁纸 | 4K MV 怎么播放4K视频 | 4K电视演示片

教你玩转4K私人与家庭影院存储 NAS组装 | 黑群辉 家庭/影院Nas论坛

4K家庭影院信号源与视频设备知识 4K蓝光高清播放机 - 那个品牌好? 4K投影机论坛 | 4K电视机论坛

手把手教你搭建属于自己的家庭影院 4K家庭影院案例 | 家庭影院音频 4K家庭影院论坛

查看: 159|回复: 0

[剧情片] 伟大的星期三 Big.Wednesday.1978.1080p.BluRay.REMUX.AVC.DTS-HD.MA.2.0-FGT 35.03GB

[复制链接]

 成长值: 1600

级别:资源管理组

注册时间
2017-10-20
最后登录
2019-6-18
听众
0
收听
0
主题
78692
蓝光币
26992 枚
贡献
3017 点
发表于 2018-12-29 14:02:14 | 显示全部楼层 |阅读模式

巨大的星期三 Big.Wednesday.1978.1080p.BluRay.REMUX.AVC.DTS-HD.MA.2.0-FGT 35.03GB-1.jpg
◎译  名 巨大的星期三
◎片  名 巨大的星期三 Big Wednesday
◎年  代 1978
◎国  家 美国
◎类  别 剧情 / 笑剧 / 活动
◎语  言 英语
◎上映日期 1978-11-24
◎IMDb评分  7.3/10 from 5,354 users
◎IMDb链接  http://www.imdb.com/title/tt0077235/
◎豆瓣评分 今朝无人评价
◎豆瓣链接 https://movie.douban.com/subject/1306053/
◎片  长 120 分钟
◎导  演 约翰·米利厄斯
◎主  演 冉-迈克尔·文森特
      威廉姆·卡特
      加里·布塞

◎简  介 

  The lives of some California surfers from the early 1960s to the 1970s.


  1. Video
  2. ID                                       : 1
  3. Format                                   : AVC
  4. Format/Info                              : Advanced Video Codec
  5. Format profile                           : [url=/cdn-cgi/l/email-protection][email protected][/url]
  6. Format settings                          : CABAC / 4 Ref Frames
  7. Format settings, CABAC                   : Yes
  8. Format settings, ReFrames                : 4 frames
  9. Codec ID                                 : V_MPEG4/ISO/AVC
  10. Duration                                 : 1 h 59 min
  11. Bit rate mode                            : Variable
  12. Bit rate                                 : 34.9 Mb/s
  13. Maximum bit rate                         : 38.0 Mb/s
  14. Width                                    : 1 920 pixels
  15. Height                                   : 1 080 pixels
  16. Display aspect ratio                     : 16:9
  17. Frame rate mode                          : Constant
  18. Frame rate                               : 23.976 (24000/1001) FPS
  19. Color space                              : YUV
  20. Chroma subsampling                       : 4:2:0
  21. Bit depth                                : 8 bits
  22. Scan type                                : Progressive
  23. Bits/(Pixel*Frame)                       : 0.701
  24. Stream size                              : 29.1 GiB (83%)
  25. Title                                    : Big.Wednesday.1978.1080p.BluRay.REMUX.AVC.DTS-HD.MA.2.0-FGT
  26. Language                                 : English
  27. Default                                  : No
  28. Forced                                   : No

  29. Audio #1
  30. ID                                       : 2
  31. Format                                   : DTS XLL
  32. Format/Info                              : Digital Theater Systems
  33. Commercial name                          : DTS-HD Master Audio
  34. Codec ID                                 : A_DTS
  35. Duration                                 : 1 h 59 min
  36. Bit rate mode                            : Variable
  37. Bit rate                                 : 2 003 kb/s
  38. Channel(s)                               : 2 channels
  39. Channel layout                           : L R
  40. Sampling rate                            : 48.0 kHz
  41. Frame rate                               : 93.750 FPS (512 SPF)
  42. Bit depth                                : 24 bits
  43. Compression mode                         : Lossless
  44. Stream size                              : 1.67 GiB (5%)
  45. Title                                    : Big.Wednesday.1978.1080p.BluRay.REMUX.AVC.DTS-HD.MA.2.0-FGT
  46. Language                                 : English
  47. Default                                  : Yes
  48. Forced                                   : No

  49. Audio #2
  50. ID                                       : 3
  51. Format                                   : DTS
  52. Format/Info                              : Digital Theater Systems
  53. Codec ID                                 : A_DTS
  54. Duration                                 : 1 h 59 min
  55. Bit rate mode                            : Constant
  56. Bit rate                                 : 1 509 kb/s
  57. Channel(s)                               : 2 channels
  58. Channel layout                           : L R
  59. Sampling rate                            : 48.0 kHz
  60. Frame rate                               : 93.750 FPS (512 SPF)
  61. Bit depth                                : 24 bits
  62. Compression mode                         : Lossy
  63. Stream size                              : 1.26 GiB (4%)
  64. Title                                    : Big.Wednesday.1978.1080p.BluRay.REMUX.AVC.DTS-HD.MA.2.0-FGT
  65. Language                                 : English
  66. Default                                  : No
  67. Forced                                   : No

  68. Audio #3
  69. ID                                       : 4
  70. Format                                   : DTS XLL
  71. Format/Info                              : Digital Theater Systems
  72. Commercial name                          : DTS-HD Master Audio
  73. Codec ID                                 : A_DTS
  74. Duration                                 : 1 h 59 min
  75. Bit rate mode                            : Variable
  76. Bit rate                                 : 1 969 kb/s
  77. Channel(s)                               : 2 channels
  78. Channel layout                           : L R
  79. Sampling rate                            : 48.0 kHz
  80. Frame rate                               : 93.750 FPS (512 SPF)
  81. Bit depth                                : 24 bits
  82. Compression mode                         : Lossless
  83. Stream size                              : 1.65 GiB (5%)
  84. Title                                    : Big.Wednesday.1978.1080p.BluRay.REMUX.AVC.DTS-HD.MA.2.0-FGT
  85. Language                                 : English
  86. Default                                  : No
  87. Forced                                   : No

  88. Audio #4
  89. ID                                       : 5
  90. Format                                   : DTS
  91. Format/Info                              : Digital Theater Systems
  92. Codec ID                                 : A_DTS
  93. Duration                                 : 1 h 59 min
  94. Bit rate mode                            : Constant
  95. Bit rate                                 : 1 509 kb/s
  96. Channel(s)                               : 2 channels
  97. Channel layout                           : L R
  98. Sampling rate                            : 48.0 kHz
  99. Frame rate                               : 93.750 FPS (512 SPF)
  100. Bit depth                                : 24 bits
  101. Compression mode                         : Lossy
  102. Stream size                              : 1.26 GiB (4%)
  103. Title                                    : Big.Wednesday.1978.1080p.BluRay.REMUX.AVC.DTS-HD.MA.2.0-FGT
  104. Language                                 : English
  105. Default                                  : No
  106. Forced                                   : No

  107. Text
  108. ID                                       : 6
  109. Format                                   : PGS
  110. Muxing mode                              : zlib
  111. Codec ID                                 : S_HDMV/PGS
  112. Codec ID/Info                            : Picture based subtitle format used on BDs/HD-DVDs
  113. Duration                                 : 1 h 59 min
  114. Bit rate                                 : 68.4 kb/s
  115. Count of elements                        : 3044
  116. Stream size                              : 58.4 MiB (0%)
  117. Title                                    : English-PGS
  118. Language                                 : English
  119. Default                                  : Yes
  120. Forced                                   : No

  121. Menu
  122. 00:00:00.000                             : en:Chapter 01
  123. 00:02:54.632                             : en:Chapter 02
  124. 00:07:05.633                             : en:Chapter 03
  125. 00:09:47.545                             : en:Chapter 04
  126. 00:12:31.333                             : en:Chapter 05
  127. 00:16:18.852                             : en:Chapter 06
  128. 00:20:57.339                             : en:Chapter 07
  129. 00:26:46.855                             : en:Chapter 08
  130. 00:30:47.679                             : en:Chapter 09
  131. 00:36:12.295                             : en:Chapter 10
  132. 00:37:47.139                             : en:Chapter 11
  133. 00:41:22.813                             : en:Chapter 12
  134. 00:44:02.723                             : en:Chapter 13
  135. 00:48:09.344                             : en:Chapter 14
  136. 00:52:46.746                             : en:Chapter 15
  137. 00:58:45.730                             : en:Chapter 16
  138. 01:03:25.802                             : en:Chapter 17
  139. 01:05:46.859                             : en:Chapter 18
  140. 01:10:08.954                             : en:Chapter 19
  141. 01:16:06.103                             : en:Chapter 20
  142. 01:17:48.789                             : en:Chapter 21
  143. 01:23:04.688                             : en:Chapter 22
  144. 01:30:23.334                             : en:Chapter 23
  145. 01:33:43.618                             : en:Chapter 24
  146. 01:38:04.044                             : en:Chapter 25
  147. 01:41:14.443                             : en:Chapter 26
  148. 01:45:23.900                             : en:Chapter 27
  149. 01:49:44.661                             : en:Chapter 28
  150. 01:52:44.549                             : en:Chapter 29
  151. 01:57:14.527                             : en:Chapter 30
  152. 01:59:38.588                             : en:Chapter 31
复制代码

复制代码

巨大的星期三 Big.Wednesday.1978.1080p.BluRay.REMUX.AVC.DTS-HD.MA.2.0-FGT 35.03GB-2.png 巨大的星期三 Big.Wednesday.1978.1080p.BluRay.REMUX.AVC.DTS-HD.MA.2.0-FGT 35.03GB-3.png 巨大的星期三 Big.Wednesday.1978.1080p.BluRay.REMUX.AVC.DTS-HD.MA.2.0-FGT 35.03GB-4.png




回复

使用道具 举报

*滑动验证:
懒得打字嘛,点击右侧快捷回复 【右侧内容,后台自定义】
您需要登录后才可以回帖 登录 | 立即注册

本版积分规则

QQ|Archiver|手机版|小黑屋| 中国高清网 |网站地图

GMT+8, 2019-6-18 18:37 , Processed in 0.179134 second(s), 46 queries .

Powered by HDchina X3.4

Copyright 2017-2019©HDchina.All right reserved

返回顶部 联系我们