你所知道的4K资源这里全部都有 4K电影 | 4K视频 | 4K壁纸 | 4K MV 怎么播放4K视频 | 4K电视演示片

教你玩转4K私人与家庭影院存储 NAS组装 | 黑群辉 家庭/影院Nas论坛

4K家庭影院信号源与视频设备知识 4K蓝光高清播放机 - 那个品牌好? 4K投影机论坛 | 4K电视机论坛

手把手教你搭建属于自己的家庭影院 4K家庭影院案例 | 家庭影院音频 4K家庭影院论坛

查看: 26|回复: 1

[剧情片] 罗宾汉与玛莉安/罗宾汉与玛丽安 Robin.and.Marian.1976.1080p.BluRay.REMUX.AVC.DTS-HD.MA.2.0-FGT 21.04GB

[复制链接]

 成长值: 70

级别:资源管理组

UID
1
注册时间
2017-10-20
最后登录
2019-1-17
听众
0
收听
0
主题
73857
蓝光币
114324 枚
贡献
143666 点
发表于 2018-12-29 14:01:02 | 显示全部楼层 |阅读模式

罗宾汉与玛莉安/罗宾汉与玛丽安 Robin.and.Marian.1976.1080p.BluRay.REMUX.AVC.DTS-HD.MA.2.0-FGT 21.04GB-1.jpg
◎译  名 罗宾汉与玛莉安 / 罗宾汉与玛丽安
◎片  名 罗宾汉与玛莉安 Robin and Marian
◎年  代 1976
◎国  家 美国
◎类  别 剧情 / 恋爱 / 冒险
◎语  言 英语
◎上映日期 1976-03-11
◎IMDb评分  6.6/10 from 10,135 users
◎IMDb链接  http://www.imdb.com/title/tt0075147/
◎豆瓣评分 6.7/10 from 154 users
◎豆瓣链接 https://movie.douban.com/subject/1294672/
◎片  长 106 分钟
◎导  演 理查德·莱斯特
◎主  演 奥黛丽·赫本
      肖恩·康纳利
      罗伯特·肖
      理查德·哈里斯
      尼科尔·威廉森
      丹霍姆·艾略特

◎简  介 

  理查王临死前放罗宾汉和小约翰自在,两人再次回到故乡英格兰的舍伍德森林。罗宾汉昔日的情人玛丽安对罗宾的归来并没有感应受惊,由于她已经皈依天主,没有任何世俗烦扰了。罗宾汉救下了被诺丁汉州长追捕的玛丽安,并调集了当地的村民对州长的残暴倡议了抵挡,最初罗宾汉克服了他的老仇敌-诺丁汉州长,但自己也身负重伤,玛丽安和小约翰扶持着罗宾汉来到修道院上药,成果发现罗宾汉中了剧毒。罗宾汉晓得自己快要不可了,他拿出弓和箭说道:“当箭落地的时辰,把我葬到那边。”随即,箭射向远方,越飞越高……玛丽安也吞下了毒药,跟随着罗宾。


  1. Video
  2. ID                                       : 1
  3. Format                                   : AVC
  4. Format/Info                              : Advanced Video Codec
  5. Format profile                           : [url=/cdn-cgi/l/email-protection][email protected][/url]
  6. Format settings                          : CABAC / 3 Ref Frames
  7. Format settings, CABAC                   : Yes
  8. Format settings, ReFrames                : 3 frames
  9. Codec ID                                 : V_MPEG4/ISO/AVC
  10. Duration                                 : 1 h 46 min
  11. Bit rate mode                            : Variable
  12. Bit rate                                 : 25.0 Mb/s
  13. Maximum bit rate                         : 40.0 Mb/s
  14. Width                                    : 1 920 pixels
  15. Height                                   : 1 080 pixels
  16. Display aspect ratio                     : 16:9
  17. Frame rate mode                          : Constant
  18. Frame rate                               : 23.976 (24000/1001) FPS
  19. Color space                              : YUV
  20. Chroma subsampling                       : 4:2:0
  21. Bit depth                                : 8 bits
  22. Scan type                                : Progressive
  23. Bits/(Pixel*Frame)                       : 0.503
  24. Stream size                              : 18.5 GiB (88%)
  25. Title                                    : Robin.and.Marian.1976.1080p.BluRay.REMUX.AVC.DTS-HD.MA.2.0-FGT
  26. Writing library                          : x264 core 148 r2694bm 3b70645
  27. Encoding settings                        : cabac=1 / ref=4 / deblock=1:-1:-1 / analyse=0x3:0x133 / me=umh / subme=9 / psy=1 / psy_rd=1.00:0.15 / mixed_ref=1 / me_range=16 / chroma_me=1 / trellis=2 / 8x8dct=1 / cqm=0 / deadzone=21,11 / fast_pskip=1 / chroma_qp_offset=-3 / threads=12 / lookahead_threads=1 / sliced_threads=0 / slices=4 / nr=0 / decimate=1 / interlaced=0 / bluray_compat=1 / constrained_intra=0 / bframes=3 / b_pyramid=1 / b_adapt=2 / b_bias=0 / direct=3 / weightb=1 / open_gop=1 / weightp=1 / keyint=24 / keyint_min=1 / scenecut=40 / intra_refresh=0 / rc_lookahead=24 / rc=abr / mbtree=1 / bitrate=25000 / ratetol=1.0 / qcomp=0.60 / qpmin=0 / qpmax=69 / qpstep=4 / vbv_maxrate=40000 / vbv_bufsize=30000 / nal_hrd=vbr / filler=0 / ip_ratio=1.40 / aq=1:1.00
  28. Language                                 : English
  29. Default                                  : No
  30. Forced                                   : No
  31. Color range                              : Limited
  32. Color primaries                          : BT.709
  33. Transfer characteristics                 : BT.709
  34. Matrix coefficients                      : BT.709

  35. Audio #1
  36. ID                                       : 2
  37. Format                                   : DTS XLL
  38. Format/Info                              : Digital Theater Systems
  39. Commercial name                          : DTS-HD Master Audio
  40. Codec ID                                 : A_DTS
  41. Duration                                 : 1 h 46 min
  42. Bit rate mode                            : Variable
  43. Bit rate                                 : 1 616 kb/s
  44. Channel(s)                               : 2 channels
  45. Channel layout                           : L R
  46. Sampling rate                            : 48.0 kHz
  47. Frame rate                               : 93.750 FPS (512 SPF)
  48. Bit depth                                : 16 bits
  49. Compression mode                         : Lossless
  50. Stream size                              : 1.21 GiB (6%)
  51. Title                                    : Robin.and.Marian.1976.1080p.BluRay.REMUX.AVC.DTS-HD.MA.2.0-FGT
  52. Language                                 : English
  53. Default                                  : Yes
  54. Forced                                   : No

  55. Audio #2
  56. ID                                       : 3
  57. Format                                   : DTS
  58. Format/Info                              : Digital Theater Systems
  59. Codec ID                                 : A_DTS
  60. Duration                                 : 1 h 46 min
  61. Bit rate mode                            : Constant
  62. Bit rate                                 : 1 509 kb/s
  63. Channel(s)                               : 2 channels
  64. Channel layout                           : L R
  65. Sampling rate                            : 48.0 kHz
  66. Frame rate                               : 93.750 FPS (512 SPF)
  67. Bit depth                                : 16 bits
  68. Compression mode                         : Lossy
  69. Stream size                              : 1.13 GiB (5%)
  70. Title                                    : Robin.and.Marian.1976.1080p.BluRay.REMUX.AVC.DTS-HD.MA.2.0-FGT
  71. Language                                 : English
  72. Default                                  : No
  73. Forced                                   : No

  74. Audio #3
  75. ID                                       : 4
  76. Format                                   : AC-3
  77. Format/Info                              : Audio Coding 3
  78. Commercial name                          : Dolby Digital
  79. Codec ID                                 : A_AC3
  80. Duration                                 : 1 h 46 min
  81. Bit rate mode                            : Constant
  82. Bit rate                                 : 192 kb/s
  83. Channel(s)                               : 2 channels
  84. Channel layout                           : L R
  85. Sampling rate                            : 48.0 kHz
  86. Frame rate                               : 31.250 FPS (1536 SPF)
  87. Bit depth                                : 16 bits
  88. Compression mode                         : Lossy
  89. Stream size                              : 147 MiB (1%)
  90. Title                                    : Robin.and.Marian.1976.1080p.BluRay.REMUX.AVC.DTS-HD.MA.2.0-FGT
  91. Language                                 : French
  92. Service kind                             : Complete Main
  93. Default                                  : No
  94. Forced                                   : No

  95. Text #1
  96. ID                                       : 5
  97. Format                                   : PGS
  98. Muxing mode                              : zlib
  99. Codec ID                                 : S_HDMV/PGS
  100. Codec ID/Info                            : Picture based subtitle format used on BDs/HD-DVDs
  101. Duration                                 : 1 h 44 min
  102. Bit rate                                 : 23.6 kb/s
  103. Count of elements                        : 2382
  104. Stream size                              : 17.6 MiB (0%)
  105. Title                                    : English-PGS
  106. Language                                 : English
  107. Default                                  : Yes
  108. Forced                                   : No

  109. Text #2
  110. ID                                       : 6
  111. Format                                   : PGS
  112. Muxing mode                              : zlib
  113. Codec ID                                 : S_HDMV/PGS
  114. Codec ID/Info                            : Picture based subtitle format used on BDs/HD-DVDs
  115. Duration                                 : 1 h 44 min
  116. Bit rate                                 : 21.2 kb/s
  117. Count of elements                        : 2224
  118. Stream size                              : 15.8 MiB (0%)
  119. Title                                    : French-PGS
  120. Language                                 : French
  121. Default                                  : No
  122. Forced                                   : No

  123. Menu
  124. 00:00:00.000                             : en:Chapter 01
  125. 00:10:00.266                             : en:Chapter 02
  126. 00:20:01.617                             : en:Chapter 03
  127. 00:30:01.925                             : en:Chapter 04
  128. 00:40:02.108                             : en:Chapter 05
  129. 00:50:03.083                             : en:Chapter 06
  130. 01:00:03.641                             : en:Chapter 07
  131. 01:10:04.033                             : en:Chapter 08
  132. 01:20:04.925                             : en:Chapter 09
  133. 01:30:05.441                             : en:Chapter 10
  134. 01:40:05.749                             : en:Chapter 11
  135. 01:45:11.346                             : en:Chapter 12
复制代码

复制代码

罗宾汉与玛莉安/罗宾汉与玛丽安 Robin.and.Marian.1976.1080p.BluRay.REMUX.AVC.DTS-HD.MA.2.0-FGT 21.04GB-2.png 罗宾汉与玛莉安/罗宾汉与玛丽安 Robin.and.Marian.1976.1080p.BluRay.REMUX.AVC.DTS-HD.MA.2.0-FGT 21.04GB-3.png 罗宾汉与玛莉安/罗宾汉与玛丽安 Robin.and.Marian.1976.1080p.BluRay.REMUX.AVC.DTS-HD.MA.2.0-FGT 21.04GB-4.png





回复

使用道具 举报

级别:专业龙套 Lv.4

UID
4064
注册时间
2018-5-27
最后登录
2019-1-13
听众
3
收听
0
主题
0
蓝光币
1 枚
贡献
0 点
发表于 6 天前 | 显示全部楼层
感谢分享!
回复

使用道具 举报

懒得打字嘛,点击右侧快捷回复 【右侧内容,后台自定义】
您需要登录后才可以回帖 登录 | 立即注册

本版积分规则

QQ|Archiver|手机版|小黑屋|中国高清网 |网站地图

GMT+8, 2019-1-17 12:21 , Processed in 0.139374 second(s), 41 queries .

Powered by HDchina X3.4

Copyright 2017-2018©HDchina.All right reserved

返回顶部 联系我们