你所知道的4K资源这里全部都有 4K电影 | 4K视频 | 4K壁纸 | 4K MV 怎么播放4K视频 | 4K电视演示片

教你玩转4K私人与家庭影院存储 NAS组装 | 黑群辉 家庭/影院Nas论坛

4K家庭影院信号源与视频设备知识 4K蓝光高清播放机 - 那个品牌好? 4K投影机论坛 | 4K电视机论坛

手把手教你搭建属于自己的家庭影院 4K家庭影院案例 | 家庭影院音频 4K家庭影院论坛

查看: 473|回复: 1

[动作片] 放龙 The.Dragon.Unleashed.2019.1080p.BluRay.REMUX.AVC.DTS-HD.MA.5.1-FGT 15.89GB

[复制链接]

 成长值: 1670

级别:资源管理组

注册时间
2017-10-20
最后登录
2019-6-25
听众
0
收听
0
主题
78745
蓝光币
28946 枚
贡献
3070 点
发表于 2018-12-25 21:59:37 | 显示全部楼层 |阅读模式

放龙 The.Dragon.Unleashed.2019.1080p.BluRay.REMUX.AVC.DTS-HD.MA.5.1-FGT 15.89GB-1.jpg
◎译  名 放龙
◎片  名 放龙 The Dragon Unleashed
◎年  代 2019
◎国  家 美国
◎类  别 行动
◎语  言 英语
◎上映日期 无尚映时候
◎IMDb评分  今朝无人评价
◎IMDb链接  http://www.imdb.com/title/tt9021374/
◎豆瓣评分 今朝无人评价
◎豆瓣链接 https://movie.douban.com/subject/30412513/
◎片  长 无片长信息
◎导  演 雷纳·佩雷斯
◎主  演 Chase Bloomquist
      约翰·施奈德
      艾米丽·斯威特
      伊娃·哈密尔顿

◎简  介 

  A martial artist, trained by the military to become an assassin, begins to question himself after killing someone who didn't deserve to die. He now must face not only his demons, but his former boss and his goons by using a combination of firepower and his martial arts prowess.


  1. Video
  2. ID                                       : 1
  3. Format                                   : AVC
  4. Format/Info                              : Advanced Video Codec
  5. Format profile                           : [url=/cdn-cgi/l/email-protection][email protected][/url]
  6. Format settings                          : CABAC / 4 Ref Frames
  7. Format settings, CABAC                   : Yes
  8. Format settings, ReFrames                : 4 frames
  9. Format settings, GOP                     : M=3, N=24
  10. Codec ID                                 : V_MPEG4/ISO/AVC
  11. Duration                                 : 1 h 17 min
  12. Bit rate mode                            : Variable
  13. Bit rate                                 : 24.0 Mb/s
  14. Maximum bit rate                         : 34.0 Mb/s
  15. Width                                    : 1 920 pixels
  16. Height                                   : 1 080 pixels
  17. Display aspect ratio                     : 16:9
  18. Frame rate mode                          : Constant
  19. Frame rate                               : 23.976 (24000/1001) FPS
  20. Standard                                 : NTSC
  21. Color space                              : YUV
  22. Chroma subsampling                       : 4:2:0
  23. Bit depth                                : 8 bits
  24. Scan type                                : Progressive
  25. Bits/(Pixel*Frame)                       : 0.483
  26. Stream size                              : 13.0 GiB (82%)
  27. Title                                    : The.Dragon.Unleashed.2019.1080p.BluRay.REMUX.AVC.DTS-HD.MA.5.1-FGT
  28. Language                                 : English
  29. Default                                  : No
  30. Forced                                   : No
  31. Color range                              : Limited
  32. Color primaries                          : BT.709
  33. Transfer characteristics                 : BT.709
  34. Matrix coefficients                      : BT.709

  35. Audio #1
  36. ID                                       : 2
  37. Format                                   : DTS XLL
  38. Format/Info                              : Digital Theater Systems
  39. Commercial name                          : DTS-HD Master Audio
  40. Codec ID                                 : A_DTS
  41. Duration                                 : 1 h 17 min
  42. Bit rate mode                            : Variable
  43. Bit rate                                 : 3 813 kb/s
  44. Channel(s)                               : 6 channels
  45. Channel layout                           : C L R Ls Rs LFE
  46. Sampling rate                            : 48.0 kHz
  47. Frame rate                               : 93.750 FPS (512 SPF)
  48. Bit depth                                : 24 bits
  49. Compression mode                         : Lossless
  50. Stream size                              : 2.07 GiB (13%)
  51. Title                                    : The.Dragon.Unleashed.2019.1080p.BluRay.REMUX.AVC.DTS-HD.MA.5.1-FGT
  52. Language                                 : English
  53. Default                                  : Yes
  54. Forced                                   : No

  55. Audio #2
  56. ID                                       : 3
  57. Format                                   : DTS
  58. Format/Info                              : Digital Theater Systems
  59. Codec ID                                 : A_DTS
  60. Duration                                 : 1 h 17 min
  61. Bit rate mode                            : Constant
  62. Bit rate                                 : 1 509 kb/s
  63. Channel(s)                               : 6 channels
  64. Channel layout                           : C L R Ls Rs LFE
  65. Sampling rate                            : 48.0 kHz
  66. Frame rate                               : 93.750 FPS (512 SPF)
  67. Bit depth                                : 24 bits
  68. Compression mode                         : Lossy
  69. Stream size                              : 837 MiB (5%)
  70. Title                                    : The.Dragon.Unleashed.2019.1080p.BluRay.REMUX.AVC.DTS-HD.MA.5.1-FGT
  71. Language                                 : English
  72. Default                                  : No
  73. Forced                                   : No

  74. Menu
  75. 00:00:00.000                             : en:Chapter 01
  76. 00:10:00.266                             : en:Chapter 02
  77. 00:20:01.200                             : en:Chapter 03
  78. 00:30:01.800                             : en:Chapter 04
  79. 00:40:02.400                             : en:Chapter 05
  80. 00:50:03.000                             : en:Chapter 06
  81. 01:00:03.433                             : en:Chapter 07
  82. 01:10:04.200                             : en:Chapter 08
复制代码

复制代码

放龙 The.Dragon.Unleashed.2019.1080p.BluRay.REMUX.AVC.DTS-HD.MA.5.1-FGT 15.89GB-2.png 放龙 The.Dragon.Unleashed.2019.1080p.BluRay.REMUX.AVC.DTS-HD.MA.5.1-FGT 15.89GB-3.png 放龙 The.Dragon.Unleashed.2019.1080p.BluRay.REMUX.AVC.DTS-HD.MA.5.1-FGT 15.89GB-4.png





回复

使用道具 举报

级别:荣升主角 Lv.5

注册时间
2018-5-27
最后登录
2019-6-24
听众
10
收听
0
主题
0
蓝光币
135 枚
贡献
0 点
发表于 2019-1-11 21:07:56 | 显示全部楼层
感谢分享!
回复

使用道具 举报

*滑动验证:
懒得打字嘛,点击右侧快捷回复 【右侧内容,后台自定义】
您需要登录后才可以回帖 登录 | 立即注册

本版积分规则

QQ|Archiver|手机版|小黑屋| 中国高清网 |网站地图

GMT+8, 2019-6-25 01:15 , Processed in 0.224868 second(s), 44 queries .

Powered by HDchina X3.4

Copyright 2017-2019©HDchina.All right reserved

返回顶部 联系我们