你所知道的4K资源这里全部都有 4K电影 | 4K视频 | 4K壁纸 | 4K MV 怎么播放4K视频 | 4K电视演示片

教你玩转4K私人与家庭影院存储 NAS组装 | 黑群辉 家庭/影院Nas论坛

4K家庭影院信号源与视频设备知识 4K蓝光高清播放机 - 那个品牌好? 4K投影机论坛 | 4K电视机论坛

手把手教你搭建属于自己的家庭影院 4K家庭影院案例 | 家庭影院音频 4K家庭影院论坛

查看: 98|回复: 1

[喜剧片] 夜校 Night.School.2018.EXTENDED.1080p.BluRay.REMUX.AVC.DTS-X.7.1-FGT 29.50GB

[复制链接]

 成长值: 730

级别:资源管理组

注册时间
2017-10-20
最后登录
2019-3-24
听众
0
收听
0
主题
76515
蓝光币
135276 枚
贡献
146324 点
发表于 2018-12-22 21:20:56 | 显示全部楼层 |阅读模式

夜校 Night.School.2018.EXTENDED.1080p.BluRay.REMUX.AVC.DTS-X.7.1-FGT 29.50GB-1.jpg
◎译  名 夜校
◎片  名 夜校 Night School
◎年  代 2018
◎国  家 美国
◎类  别 笑剧
◎语  言 英语
◎上映日期 2018-09-28(美国)
◎IMDb评分  5.5/10 from 8,826 users
◎IMDb链接  http://www.imdb.com/title/tt6781982/
◎豆瓣评分 6.0/10 from 139 users
◎豆瓣链接 https://movie.douban.com/subject/27059067/
◎片  长 111分钟
◎导  演 马尔科姆·D·李
◎主  演 凯文·哈特
      蒂凡尼·哈迪斯
      玛丽·莱恩·莱杰斯库
      依冯娜·奥吉
      罗伯·里格尔
      欧文·哈恩
      本·施瓦茨

◎简  介 

  本·施瓦茨(《公园与游憩》《假话屋》)加盟举世笑剧新片《夜校》,凯文·哈特主演,报告一群无事生非者被迫去夜校进修,希望能经过GED考试考试以获得高中文凭。该片由《嗨翻姐妹行》导演马尔科姆·D·李执导,凯文·哈特编写剧本,泰兰·奇拉姆、罗伯·里格尔、Tiffany Haddish、依冯娜·奥吉等也参演,9月亚特兰大开拍,北美2018年9月28日上映。


  1. Video
  2. ID                                       : 1
  3. Format                                   : AVC
  4. Format/Info                              : Advanced Video Codec
  5. Format profile                           : [url=/cdn-cgi/l/email-protection][email protected][/url]
  6. Format settings                          : CABAC / 4 Ref Frames
  7. Format settings, CABAC                   : Yes
  8. Format settings, ReFrames                : 4 frames
  9. Format settings, GOP                     : M=3, N=12
  10. Codec ID                                 : V_MPEG4/ISO/AVC
  11. Duration                                 : 1 h 56 min
  12. Bit rate mode                            : Variable
  13. Bit rate                                 : 24.9 Mb/s
  14. Maximum bit rate                         : 28.0 Mb/s
  15. Width                                    : 1 920 pixels
  16. Height                                   : 1 080 pixels
  17. Display aspect ratio                     : 16:9
  18. Frame rate mode                          : Constant
  19. Frame rate                               : 23.976 (24000/1001) FPS
  20. Color space                              : YUV
  21. Chroma subsampling                       : 4:2:0
  22. Bit depth                                : 8 bits
  23. Scan type                                : Progressive
  24. Bits/(Pixel*Frame)                       : 0.501
  25. Stream size                              : 20.2 GiB (68%)
  26. Title                                    : Night.School.2018.EXTENDED.1080p.BluRay.REMUX.AVC.DTS-X.7.1-FGT
  27. Language                                 : English
  28. Default                                  : No
  29. Forced                                   : No

  30. Audio #1
  31. ID                                       : 2
  32. Format                                   : DTS XLL X
  33. Format/Info                              : Digital Theater Systems
  34. Commercial name                          : DTS-HD Master Audio
  35. Codec ID                                 : A_DTS
  36. Duration                                 : 1 h 56 min
  37. Bit rate mode                            : Variable
  38. Bit rate                                 : 5 587 kb/s
  39. Channel(s)                               : 8 channels
  40. Channel(s)_Original                      : Object Based
  41. Channel layout                           : Object Based
  42. Sampling rate                            : 48.0 kHz
  43. Frame rate                               : 93.750 FPS (512 SPF)
  44. Bit depth                                : 24 bits
  45. Stream size                              : 4.53 GiB (15%)
  46. Title                                    : Night.School.2018.EXTENDED.1080p.BluRay.REMUX.AVC.DTS-X.7.1-FGT
  47. Language                                 : English
  48. Default                                  : Yes
  49. Forced                                   : No

  50. Audio #2
  51. ID                                       : 3
  52. Format                                   : DTS
  53. Format/Info                              : Digital Theater Systems
  54. Codec ID                                 : A_DTS
  55. Duration                                 : 1 h 56 min
  56. Bit rate mode                            : Constant
  57. Bit rate                                 : 1 509 kb/s
  58. Channel(s)                               : 6 channels
  59. Channel layout                           : C L R Ls Rs LFE
  60. Sampling rate                            : 48.0 kHz
  61. Frame rate                               : 93.750 FPS (512 SPF)
  62. Bit depth                                : 24 bits
  63. Compression mode                         : Lossy
  64. Stream size                              : 1.22 GiB (4%)
  65. Title                                    : Night.School.2018.EXTENDED.1080p.BluRay.REMUX.AVC.DTS-X.7.1-FGT
  66. Language                                 : English
  67. Default                                  : No
  68. Forced                                   : No

  69. Audio #3
  70. ID                                       : 4
  71. Format                                   : DTS XBR
  72. Format/Info                              : Digital Theater Systems
  73. Commercial name                          : DTS-HD High Resolution Audio
  74. Codec ID                                 : A_DTS
  75. Duration                                 : 1 h 56 min
  76. Bit rate mode                            : Constant
  77. Bit rate                                 : 2 046 kb/s
  78. Channel(s)                               : 8 channels
  79. Channel layout                           : C L R LFE Lb Rb Lss Rss
  80. Sampling rate                            : 48.0 kHz
  81. Frame rate                               : 93.750 FPS (512 SPF)
  82. Bit depth                                : 24 bits
  83. Compression mode                         : Lossy
  84. Stream size                              : 1.66 GiB (6%)
  85. Title                                    : Night.School.2018.EXTENDED.1080p.BluRay.REMUX.AVC.DTS-X.7.1-FGT
  86. Language                                 : French
  87. Default                                  : No
  88. Forced                                   : No

  89. Audio #4
  90. ID                                       : 5
  91. Format                                   : DTS
  92. Format/Info                              : Digital Theater Systems
  93. Codec ID                                 : A_DTS
  94. Duration                                 : 1 h 56 min
  95. Bit rate mode                            : Constant
  96. Bit rate                                 : 1 509 kb/s
  97. Channel(s)                               : 6 channels
  98. Channel layout                           : C L R Ls Rs LFE
  99. Sampling rate                            : 48.0 kHz
  100. Frame rate                               : 93.750 FPS (512 SPF)
  101. Bit depth                                : 24 bits
  102. Compression mode                         : Lossy
  103. Stream size                              : 1.22 GiB (4%)
  104. Title                                    : Night.School.2018.EXTENDED.1080p.BluRay.REMUX.AVC.DTS-X.7.1-FGT
  105. Language                                 : French
  106. Default                                  : No
  107. Forced                                   : No

  108. Audio #5
  109. ID                                       : 6
  110. Format                                   : DTS
  111. Format/Info                              : Digital Theater Systems
  112. Codec ID                                 : A_DTS
  113. Duration                                 : 1 h 56 min
  114. Bit rate mode                            : Constant
  115. Bit rate                                 : 768 kb/s
  116. Channel(s)                               : 6 channels
  117. Channel layout                           : C L R Ls Rs LFE
  118. Sampling rate                            : 48.0 kHz
  119. Frame rate                               : 93.750 FPS (512 SPF)
  120. Bit depth                                : 24 bits
  121. Compression mode                         : Lossy
  122. Stream size                              : 637 MiB (2%)
  123. Title                                    : Night.School.2018.EXTENDED.1080p.BluRay.REMUX.AVC.DTS-X.7.1-FGT
  124. Language                                 : Spanish
  125. Default                                  : No
  126. Forced                                   : No

  127. Text #1
  128. ID                                       : 7
  129. Format                                   : PGS
  130. Muxing mode                              : zlib
  131. Codec ID                                 : S_HDMV/PGS
  132. Codec ID/Info                            : Picture based subtitle format used on BDs/HD-DVDs
  133. Duration                                 : 1 h 50 min
  134. Bit rate                                 : 69.9 kb/s
  135. Count of elements                        : 5282
  136. Stream size                              : 55.4 MiB (0%)
  137. Title                                    : English-PGS
  138. Language                                 : English
  139. Default                                  : Yes
  140. Forced                                   : No

  141. Text #2
  142. ID                                       : 8
  143. Format                                   : PGS
  144. Muxing mode                              : zlib
  145. Codec ID                                 : S_HDMV/PGS
  146. Codec ID/Info                            : Picture based subtitle format used on BDs/HD-DVDs
  147. Duration                                 : 1 h 55 min
  148. Bit rate                                 : 54.0 kb/s
  149. Count of elements                        : 5045
  150. Stream size                              : 44.5 MiB (0%)
  151. Title                                    : French-PGS
  152. Language                                 : French
  153. Default                                  : No
  154. Forced                                   : No

  155. Text #3
  156. ID                                       : 9
  157. Format                                   : PGS
  158. Muxing mode                              : zlib
  159. Codec ID                                 : S_HDMV/PGS
  160. Codec ID/Info                            : Picture based subtitle format used on BDs/HD-DVDs
  161. Duration                                 : 1 h 55 min
  162. Bit rate                                 : 51.4 kb/s
  163. Count of elements                        : 5252
  164. Stream size                              : 42.3 MiB (0%)
  165. Title                                    : Spanish-PGS
  166. Language                                 : Spanish
  167. Default                                  : No
  168. Forced                                   : No

  169. Text #4
  170. ID                                       : 10
  171. Format                                   : PGS
  172. Muxing mode                              : zlib
  173. Codec ID                                 : S_HDMV/PGS
  174. Codec ID/Info                            : Picture based subtitle format used on BDs/HD-DVDs
  175. Duration                                 : 1 h 55 min
  176. Bit rate                                 : 1 115 b/s
  177. Count of elements                        : 117
  178. Stream size                              : 942 KiB (0%)
  179. Title                                    : French-FORCED-PGS
  180. Language                                 : French
  181. Default                                  : No
  182. Forced                                   : No

  183. Text #5
  184. ID                                       : 11
  185. Format                                   : PGS
  186. Muxing mode                              : zlib
  187. Codec ID                                 : S_HDMV/PGS
  188. Codec ID/Info                            : Picture based subtitle format used on BDs/HD-DVDs
  189. Duration                                 : 1 h 51 min
  190. Bit rate                                 : 581 b/s
  191. Count of elements                        : 72
  192. Stream size                              : 473 KiB (0%)
  193. Title                                    : Spanish-FORCED-PGS
  194. Language                                 : Spanish
  195. Default                                  : No
  196. Forced                                   : No

  197. Menu
  198. 00:00:00.000                             : en:Chapter 01
  199. 00:04:38.278                             : en:Chapter 02
  200. 00:08:25.922                             : en:Chapter 03
  201. 00:13:20.382                             : en:Chapter 04
  202. 00:19:09.231                             : en:Chapter 05
  203. 00:26:59.868                             : en:Chapter 06
  204. 00:30:17.315                             : en:Chapter 07
  205. 00:38:08.452                             : en:Chapter 08
  206. 00:42:02.603                             : en:Chapter 09
  207. 00:47:35.477                             : en:Chapter 10
  208. 00:50:51.840                             : en:Chapter 11
  209. 01:02:32.206                             : en:Chapter 12
  210. 01:08:56.423                             : en:Chapter 13
  211. 01:15:38.951                             : en:Chapter 14
  212. 01:19:40.275                             : en:Chapter 15
  213. 01:25:52.647                             : en:Chapter 16
  214. 01:33:46.829                             : en:Chapter 17
  215. 01:38:41.957                             : en:Chapter 18
  216. 01:44:19.419                             : en:Chapter 19
  217. 01:51:22.008                             : en:Chapter 20
复制代码

复制代码

夜校 Night.School.2018.EXTENDED.1080p.BluRay.REMUX.AVC.DTS-X.7.1-FGT 29.50GB-2.png 夜校 Night.School.2018.EXTENDED.1080p.BluRay.REMUX.AVC.DTS-X.7.1-FGT 29.50GB-3.png 夜校 Night.School.2018.EXTENDED.1080p.BluRay.REMUX.AVC.DTS-X.7.1-FGT 29.50GB-4.png





回复

使用道具 举报

级别:荣升主角 Lv.5

注册时间
2018-5-27
最后登录
2019-3-23
听众
4
收听
0
主题
0
蓝光币
17 枚
贡献
0 点
发表于 2019-1-11 21:13:38 | 显示全部楼层
感谢分享!
回复

使用道具 举报

懒得打字嘛,点击右侧快捷回复 【右侧内容,后台自定义】
您需要登录后才可以回帖 登录 | 立即注册

本版积分规则

QQ|Archiver|手机版|小黑屋|中国高清网 |网站地图

GMT+8, 2019-3-24 10:37 , Processed in 0.197471 second(s), 41 queries .

Powered by HDchina X3.4

Copyright 2017-2018©HDchina.All right reserved

返回顶部 联系我们