你所知道的4K资源这里全部都有 4K电影 | 4K视频 | 4K壁纸 | 4K MV 怎么播放4K视频 | 4K电视演示片

教你玩转4K私人与家庭影院存储 NAS组装 | 黑群辉 家庭/影院Nas论坛

4K家庭影院信号源与视频设备知识 4K蓝光高清播放机 - 那个品牌好? 4K投影机论坛 | 4K电视机论坛

手把手教你搭建属于自己的家庭影院 4K家庭影院案例 | 家庭影院音频 4K家庭影院论坛

查看: 101|回复: 1

[剧情片] 上帝保佑破碎的道路/上帝保佑坎坷的旅途 God.Bless.The.Broken.Road.2018.1080p.BluRay.REMUX.AVC.DTS-HD.MA.5.1-FGT 31.01GB

[复制链接]

 成长值: 70

级别:资源管理组

UID
1
注册时间
2017-10-20
最后登录
2019-1-17
听众
0
收听
0
主题
73857
蓝光币
114324 枚
贡献
143666 点
发表于 2018-12-21 10:44:30 | 显示全部楼层 |阅读模式

天主保佑破裂的门路/天主保佑坎坷的旅途 God.Bless.The.Broken.Road.2018.1080p.BluRay.REMUX.AVC.DTS-HD.MA.5.1-FGT 31.01GB-1.jpg
◎译  名 天主保佑破裂的门路 / 天主保佑坎坷的旅途
◎片  名 天主保佑破裂的门路 God Bless the Broken Road
◎年  代 2018
◎国  家 美国
◎类  别 剧情
◎语  言 英语
◎上映日期 2018-09-07(美国)
◎IMDb评分  4.4/10 from 319 users
◎IMDb链接  http://www.imdb.com/title/tt5702446/
◎豆瓣评分 今朝无人评价
◎豆瓣链接 https://movie.douban.com/subject/27036800/
◎片  长 111分钟
◎导  演 哈洛德·科朗克
◎主  演 琳赛·普尔斯菲
      乔丁·斯巴克斯
      LaDainian Tomlinson
      安德鲁·W·沃克
      罗宾·吉文斯
      麦肯泽·摩斯
      金·德莱尼
      加里·格鲁布斯
      Arthur Cartwright
      玛德琳·卡罗尔
      Adam Agee
      Shane Carson
      Jordyn Casey
      Becky Contreras
      Cody Coughlin

◎简  介 

  God Bless the Broken Road tells the story of a young mother who loses her husband in Afghanistan and struggles to raise their young daughter in his absence. The film combines elements of faith, country music, and stock car racing while paying tribute to those who serve in the United States Military.


  1. Video
  2. ID                                       : 1
  3. Format                                   : AVC
  4. Format/Info                              : Advanced Video Codec
  5. Format profile                           : [url=/cdn-cgi/l/email-protection][email protected][/url]
  6. Format settings                          : CABAC / 4 Ref Frames
  7. Format settings, CABAC                   : Yes
  8. Format settings, ReFrames                : 4 frames
  9. Codec ID                                 : V_MPEG4/ISO/AVC
  10. Duration                                 : 1 h 51 min
  11. Bit rate mode                            : Variable
  12. Bit rate                                 : 34.8 Mb/s
  13. Maximum bit rate                         : 37.0 Mb/s
  14. Width                                    : 1 920 pixels
  15. Height                                   : 1 080 pixels
  16. Display aspect ratio                     : 16:9
  17. Frame rate mode                          : Constant
  18. Frame rate                               : 23.976 (24000/1001) FPS
  19. Color space                              : YUV
  20. Chroma subsampling                       : 4:2:0
  21. Bit depth                                : 8 bits
  22. Scan type                                : Progressive
  23. Bits/(Pixel*Frame)                       : 0.699
  24. Stream size                              : 27.1 GiB (87%)
  25. Title                                    : God.Bless.The.Broken.Road.2018.1080p.BluRay.REMUX.AVC.DTS-HD.MA.5.1-FGT
  26. Language                                 : English
  27. Default                                  : No
  28. Forced                                   : No

  29. Audio #1
  30. ID                                       : 2
  31. Format                                   : DTS XLL
  32. Format/Info                              : Digital Theater Systems
  33. Commercial name                          : DTS-HD Master Audio
  34. Codec ID                                 : A_DTS
  35. Duration                                 : 1 h 51 min
  36. Bit rate mode                            : Variable
  37. Bit rate                                 : 3 503 kb/s
  38. Channel(s)                               : 6 channels
  39. Channel layout                           : C L R Ls Rs LFE
  40. Sampling rate                            : 48.0 kHz
  41. Frame rate                               : 93.750 FPS (512 SPF)
  42. Bit depth                                : 24 bits
  43. Compression mode                         : Lossless
  44. Stream size                              : 2.73 GiB (9%)
  45. Title                                    : God.Bless.The.Broken.Road.2018.1080p.BluRay.REMUX.AVC.DTS-HD.MA.5.1-FGT
  46. Language                                 : English
  47. Default                                  : Yes
  48. Forced                                   : No

  49. Audio #2
  50. ID                                       : 3
  51. Format                                   : DTS
  52. Format/Info                              : Digital Theater Systems
  53. Codec ID                                 : A_DTS
  54. Duration                                 : 1 h 51 min
  55. Bit rate mode                            : Constant
  56. Bit rate                                 : 1 509 kb/s
  57. Channel(s)                               : 6 channels
  58. Channel layout                           : C L R Ls Rs LFE
  59. Sampling rate                            : 48.0 kHz
  60. Frame rate                               : 93.750 FPS (512 SPF)
  61. Bit depth                                : 24 bits
  62. Compression mode                         : Lossy
  63. Stream size                              : 1.18 GiB (4%)
  64. Title                                    : God.Bless.The.Broken.Road.2018.1080p.BluRay.REMUX.AVC.DTS-HD.MA.5.1-FGT
  65. Language                                 : English
  66. Default                                  : No
  67. Forced                                   : No

  68. Text #1
  69. ID                                       : 4
  70. Format                                   : PGS
  71. Muxing mode                              : zlib
  72. Codec ID                                 : S_HDMV/PGS
  73. Codec ID/Info                            : Picture based subtitle format used on BDs/HD-DVDs
  74. Duration                                 : 1 h 50 min
  75. Bit rate                                 : 34.4 kb/s
  76. Count of elements                        : 2976
  77. Stream size                              : 27.2 MiB (0%)
  78. Title                                    : English-PGS
  79. Language                                 : English
  80. Default                                  : Yes
  81. Forced                                   : No

  82. Text #2
  83. ID                                       : 5
  84. Format                                   : PGS
  85. Muxing mode                              : zlib
  86. Codec ID                                 : S_HDMV/PGS
  87. Codec ID/Info                            : Picture based subtitle format used on BDs/HD-DVDs
  88. Duration                                 : 1 h 50 min
  89. Bit rate                                 : 27.7 kb/s
  90. Count of elements                        : 2322
  91. Stream size                              : 21.8 MiB (0%)
  92. Title                                    : Spanish-PGS
  93. Language                                 : Spanish
  94. Default                                  : No
  95. Forced                                   : No

  96. Menu
  97. 00:00:00.000                             : en:Chapter 01
  98. 00:07:10.638                             : en:Chapter 02
  99. 00:13:30.726                             : en:Chapter 03
  100. 00:20:51.166                             : en:Chapter 04
  101. 00:28:07.519                             : en:Chapter 05
  102. 00:34:20.767                             : en:Chapter 06
  103. 00:41:30.154                             : en:Chapter 07
  104. 00:50:19.182                             : en:Chapter 08
  105. 00:56:21.252                             : en:Chapter 09
  106. 01:03:19.670                             : en:Chapter 10
  107. 01:09:58.194                             : en:Chapter 11
  108. 01:18:15.107                             : en:Chapter 12
  109. 01:25:13.566                             : en:Chapter 13
  110. 01:32:08.105                             : en:Chapter 14
  111. 01:37:35.724                             : en:Chapter 15
  112. 01:45:08.302                             : en:Chapter 16
复制代码

复制代码

天主保佑破裂的门路/天主保佑坎坷的旅途 God.Bless.The.Broken.Road.2018.1080p.BluRay.REMUX.AVC.DTS-HD.MA.5.1-FGT 31.01GB-2.png 天主保佑破裂的门路/天主保佑坎坷的旅途 God.Bless.The.Broken.Road.2018.1080p.BluRay.REMUX.AVC.DTS-HD.MA.5.1-FGT 31.01GB-3.png 天主保佑破裂的门路/天主保佑坎坷的旅途 God.Bless.The.Broken.Road.2018.1080p.BluRay.REMUX.AVC.DTS-HD.MA.5.1-FGT 31.01GB-4.png





回复

使用道具 举报

级别:专业龙套 Lv.4

UID
4064
注册时间
2018-5-27
最后登录
2019-1-13
听众
3
收听
0
主题
0
蓝光币
1 枚
贡献
0 点
发表于 6 天前 | 显示全部楼层
感谢分享!
回复

使用道具 举报

懒得打字嘛,点击右侧快捷回复 【右侧内容,后台自定义】
您需要登录后才可以回帖 登录 | 立即注册

本版积分规则

QQ|Archiver|手机版|小黑屋|中国高清网 |网站地图

GMT+8, 2019-1-17 12:22 , Processed in 0.132109 second(s), 41 queries .

Powered by HDchina X3.4

Copyright 2017-2018©HDchina.All right reserved

返回顶部 联系我们