你所知道的4K资源这里全部都有 4K电影 | 4K视频 | 4K壁纸 | 4K MV 怎么播放4K视频 | 4K电视演示片

教你玩转4K私人与家庭影院存储 NAS组装 | 黑群辉 家庭/影院Nas论坛

4K家庭影院信号源与视频设备知识 4K蓝光高清播放机 - 那个品牌好? 4K投影机论坛 | 4K电视机论坛

手把手教你搭建属于自己的家庭影院 4K家庭影院案例 | 家庭影院音频 4K家庭影院论坛

查看: 120|回复: 1

[科幻片] 黑客帝国2:重装上阵/黑客帝国2 The.Matrix.Reloaded.2003.REMASTERED.1080p.BluRay.REMUX.AVC.DTS-HD.MA.TrueHD.7.1.Atmos-FGT 32.24GB

[复制链接]

 成长值: 710

级别:资源管理组

注册时间
2017-10-20
最后登录
2019-3-22
听众
0
收听
0
主题
76497
蓝光币
134741 枚
贡献
146306 点
发表于 2018-12-16 00:13:59 | 显示全部楼层 |阅读模式

黑客帝国2:重装上阵/黑客帝国2 The.Matrix.Reloaded.2003.REMASTERED.1080p.BluRay.REMUX.AVC.DTS-HD.MA.TrueHD.7.1.Atmos-FGT 32.24GB-1.jpg
◎译  名 黑客帝国2:重装上阵 / 黑客帝国2 / 骇客帝国2 / 骇客使命:重装上阵 / 廿二世纪杀人收集2:决战未来
◎片  名 黑客帝国2:重装上阵 The Matrix Reloaded
◎年  代 2003
◎国  家 美国 / 澳大利亚
◎类  别 行动 / 科幻
◎语  言 英语 / 法语
◎上映日期 2003-07-18(中国大陆) / 2003-05-07(韦斯特伍德首映) / 2003-05-15(美国)
◎IMDb评分  7.2/10 from 467,849 users
◎IMDb链接  http://www.imdb.com/title/tt0234215/
◎豆瓣评分 8.4/10 from 166532 users
◎豆瓣链接 https://movie.douban.com/subject/1304141/
◎片  长 138分钟
◎导  演 莉莉·沃卓斯基 / 拉娜·沃卓斯基
◎主  演 基努·里维斯
      凯瑞-安·莫斯
      劳伦斯·菲什伯恩
      雨果·维文
      莫妮卡·贝鲁奇
      贾达·萍克·史姑娘
      格洛丽亚·福斯特
      邹兆龙
      朗贝尔·维尔森

◎简  介 

  上一部结尾,尼奥(基奴李维斯 饰)终究意想到自己的才能和使命,中弹新生后,酿成了无所事事的“救世主”,他和女友崔妮蒂(凯莉·安·摩丝 饰),舰长墨菲斯(劳伦斯·菲什伯恩 饰)回到了人类的基地锡安,遭到人们的热烈接待。
  此时,“母体”决议先动手为强,派出了两万五千只电子乌贼进犯锡安基地;墨菲斯、尼奥和崔妮蒂则再次进入“母体”,寻觅“制钥者”,预备从内部破坏;而本该被尼奥消灭的特勤史姑娘似乎出了点题目,离开了“母体”的控制,具有可怕的复制才能,障碍尼奥他们的行动。


  1. Video
  2. ID                                       : 1
  3. Format                                   : AVC
  4. Format/Info                              : Advanced Video Codec
  5. Format profile                           : [url=/cdn-cgi/l/email-protection][email protected][/url]
  6. Format settings                          : CABAC / 4 Ref Frames
  7. Format settings, CABAC                   : Yes
  8. Format settings, ReFrames                : 4 frames
  9. Codec ID                                 : V_MPEG4/ISO/AVC
  10. Duration                                 : 2 h 18 min
  11. Bit rate mode                            : Variable
  12. Bit rate                                 : 20.7 Mb/s
  13. Maximum bit rate                         : 23.0 Mb/s
  14. Width                                    : 1 920 pixels
  15. Height                                   : 1 080 pixels
  16. Display aspect ratio                     : 16:9
  17. Frame rate mode                          : Constant
  18. Frame rate                               : 23.976 (24000/1001) FPS
  19. Color space                              : YUV
  20. Chroma subsampling                       : 4:2:0
  21. Bit depth                                : 8 bits
  22. Scan type                                : Progressive
  23. Bits/(Pixel*Frame)                       : 0.416
  24. Stream size                              : 20.0 GiB (62%)
  25. Title                                    : The.Matrix.Reloaded.2003.REMASTERED.1080p.BluRay.REMUX.AVC.DTS-HD.MA.TrueHD.7.1.Atmos-FGT
  26. Language                                 : English
  27. Default                                  : No
  28. Forced                                   : No

  29. Audio #1
  30. ID                                       : 2
  31. Format                                   : MLP FBA 16-ch
  32. Format/Info                              : Meridian Lossless Packing FBA with 16-channel presentation
  33. Commercial name                          : Dolby TrueHD with Dolby Atmos
  34. Codec ID                                 : A_TRUEHD
  35. Duration                                 : 2 h 18 min
  36. Bit rate mode                            : Variable
  37. Bit rate                                 : 3 425 kb/s
  38. Maximum bit rate                         : 5 928 kb/s
  39. Channel(s)                               : 8 channels
  40. Channel layout                           : L R C LFE Ls Rs Lb Rb
  41. Sampling rate                            : 48.0 kHz
  42. Frame rate                               : 1 200.000 FPS (40 SPF)
  43. Compression mode                         : Lossless
  44. Stream size                              : 3.31 GiB (10%)
  45. Title                                    : The.Matrix.Reloaded.2003.REMASTERED.1080p.BluRay.REMUX.AVC.DTS-HD.MA.TrueHD.7.1.Atmos-FGT
  46. Language                                 : English
  47. Default                                  : Yes
  48. Forced                                   : No
  49. Number of dynamic objects                : 11
  50. Bed channel count                        : 1 channel
  51. Bed channel configuration                : LFE

  52. Audio #2
  53. ID                                       : 3
  54. Format                                   : DTS XLL
  55. Format/Info                              : Digital Theater Systems
  56. Commercial name                          : DTS-HD Master Audio
  57. Codec ID                                 : A_DTS
  58. Duration                                 : 2 h 18 min
  59. Bit rate mode                            : Variable
  60. Bit rate                                 : 3 794 kb/s
  61. Channel(s)                               : 8 channels
  62. Channel layout                           : C L R LFE Lb Rb Lss Rss
  63. Sampling rate                            : 48.0 kHz
  64. Frame rate                               : 93.750 FPS (512 SPF)
  65. Bit depth                                : 24 bits
  66. Compression mode                         : Lossless
  67. Stream size                              : 3.66 GiB (11%)
  68. Title                                    : The.Matrix.Reloaded.2003.REMASTERED.1080p.BluRay.REMUX.AVC.DTS-HD.MA.TrueHD.7.1.Atmos-FGT
  69. Language                                 : English
  70. Default                                  : No
  71. Forced                                   : No

  72. Audio #3
  73. ID                                       : 4
  74. Format                                   : AC-3
  75. Format/Info                              : Audio Coding 3
  76. Commercial name                          : Dolby Digital
  77. Codec ID                                 : A_AC3
  78. Duration                                 : 2 h 18 min
  79. Bit rate mode                            : Constant
  80. Bit rate                                 : 448 kb/s
  81. Channel(s)                               : 6 channels
  82. Channel layout                           : L R C LFE Ls Rs
  83. Sampling rate                            : 48.0 kHz
  84. Frame rate                               : 31.250 FPS (1536 SPF)
  85. Bit depth                                : 16 bits
  86. Compression mode                         : Lossy
  87. Stream size                              : 443 MiB (1%)
  88. Title                                    : The.Matrix.Reloaded.2003.REMASTERED.1080p.BluRay.REMUX.AVC.DTS-HD.MA.TrueHD.7.1.Atmos-FGT
  89. Language                                 : English
  90. Service kind                             : Complete Main
  91. Default                                  : No
  92. Forced                                   : No

  93. Audio #4
  94. ID                                       : 5
  95. Format                                   : AC-3
  96. Format/Info                              : Audio Coding 3
  97. Commercial name                          : Dolby Digital
  98. Codec ID                                 : A_AC3
  99. Duration                                 : 2 h 18 min
  100. Bit rate mode                            : Constant
  101. Bit rate                                 : 640 kb/s
  102. Channel(s)                               : 6 channels
  103. Channel layout                           : L R C LFE Ls Rs
  104. Sampling rate                            : 48.0 kHz
  105. Frame rate                               : 31.250 FPS (1536 SPF)
  106. Bit depth                                : 16 bits
  107. Compression mode                         : Lossy
  108. Stream size                              : 633 MiB (2%)
  109. Title                                    : The.Matrix.Reloaded.2003.REMASTERED.1080p.BluRay.REMUX.AVC.DTS-HD.MA.TrueHD.7.1.Atmos-FGT
  110. Language                                 : English
  111. Service kind                             : Complete Main
  112. Default                                  : No
  113. Forced                                   : No

  114. Audio #5
  115. ID                                       : 6
  116. Format                                   : AC-3
  117. Format/Info                              : Audio Coding 3
  118. Commercial name                          : Dolby Digital
  119. Codec ID                                 : A_AC3
  120. Duration                                 : 2 h 18 min
  121. Bit rate mode                            : Constant
  122. Bit rate                                 : 640 kb/s
  123. Channel(s)                               : 6 channels
  124. Channel layout                           : L R C LFE Ls Rs
  125. Sampling rate                            : 48.0 kHz
  126. Frame rate                               : 31.250 FPS (1536 SPF)
  127. Bit depth                                : 16 bits
  128. Compression mode                         : Lossy
  129. Stream size                              : 633 MiB (2%)
  130. Title                                    : The.Matrix.Reloaded.2003.REMASTERED.1080p.BluRay.REMUX.AVC.DTS-HD.MA.TrueHD.7.1.Atmos-FGT
  131. Language                                 : French
  132. Service kind                             : Complete Main
  133. Default                                  : No
  134. Forced                                   : No

  135. Audio #6
  136. ID                                       : 7
  137. Format                                   : AC-3
  138. Format/Info                              : Audio Coding 3
  139. Commercial name                          : Dolby Digital
  140. Codec ID                                 : A_AC3
  141. Duration                                 : 2 h 18 min
  142. Bit rate mode                            : Constant
  143. Bit rate                                 : 640 kb/s
  144. Channel(s)                               : 6 channels
  145. Channel layout                           : L R C LFE Ls Rs
  146. Sampling rate                            : 48.0 kHz
  147. Frame rate                               : 31.250 FPS (1536 SPF)
  148. Bit depth                                : 16 bits
  149. Compression mode                         : Lossy
  150. Stream size                              : 633 MiB (2%)
  151. Title                                    : The.Matrix.Reloaded.2003.REMASTERED.1080p.BluRay.REMUX.AVC.DTS-HD.MA.TrueHD.7.1.Atmos-FGT
  152. Language                                 : German
  153. Service kind                             : Complete Main
  154. Default                                  : No
  155. Forced                                   : No

  156. Audio #7
  157. ID                                       : 8
  158. Format                                   : AC-3
  159. Format/Info                              : Audio Coding 3
  160. Commercial name                          : Dolby Digital
  161. Codec ID                                 : A_AC3
  162. Duration                                 : 2 h 18 min
  163. Bit rate mode                            : Constant
  164. Bit rate                                 : 640 kb/s
  165. Channel(s)                               : 6 channels
  166. Channel layout                           : L R C LFE Ls Rs
  167. Sampling rate                            : 48.0 kHz
  168. Frame rate                               : 31.250 FPS (1536 SPF)
  169. Bit depth                                : 16 bits
  170. Compression mode                         : Lossy
  171. Stream size                              : 633 MiB (2%)
  172. Title                                    : The.Matrix.Reloaded.2003.REMASTERED.1080p.BluRay.REMUX.AVC.DTS-HD.MA.TrueHD.7.1.Atmos-FGT
  173. Language                                 : Italian
  174. Service kind                             : Complete Main
  175. Default                                  : No
  176. Forced                                   : No

  177. Audio #8
  178. ID                                       : 9
  179. Format                                   : AC-3
  180. Format/Info                              : Audio Coding 3
  181. Commercial name                          : Dolby Digital
  182. Codec ID                                 : A_AC3
  183. Duration                                 : 2 h 18 min
  184. Bit rate mode                            : Constant
  185. Bit rate                                 : 640 kb/s
  186. Channel(s)                               : 6 channels
  187. Channel layout                           : L R C LFE Ls Rs
  188. Sampling rate                            : 48.0 kHz
  189. Frame rate                               : 31.250 FPS (1536 SPF)
  190. Bit depth                                : 16 bits
  191. Compression mode                         : Lossy
  192. Stream size                              : 633 MiB (2%)
  193. Title                                    : The.Matrix.Reloaded.2003.REMASTERED.1080p.BluRay.REMUX.AVC.DTS-HD.MA.TrueHD.7.1.Atmos-FGT
  194. Language                                 : Spanish
  195. Service kind                             : Complete Main
  196. Default                                  : No
  197. Forced                                   : No

  198. Audio #9
  199. ID                                       : 10
  200. Format                                   : AC-3
  201. Format/Info                              : Audio Coding 3
  202. Commercial name                          : Dolby Digital
  203. Codec ID                                 : A_AC3
  204. Duration                                 : 2 h 18 min
  205. Bit rate mode                            : Constant
  206. Bit rate                                 : 192 kb/s
  207. Channel(s)                               : 2 channels
  208. Channel layout                           : L R
  209. Sampling rate                            : 48.0 kHz
  210. Frame rate                               : 31.250 FPS (1536 SPF)
  211. Bit depth                                : 16 bits
  212. Compression mode                         : Lossy
  213. Stream size                              : 190 MiB (1%)
  214. Title                                    : The.Matrix.Reloaded.2003.REMASTERED.1080p.BluRay.REMUX.AVC.DTS-HD.MA.TrueHD.7.1.Atmos-FGT
  215. Language                                 : Portuguese
  216. Service kind                             : Complete Main
  217. Default                                  : No
  218. Forced                                   : No

  219. Audio #10
  220. ID                                       : 11
  221. Format                                   : AC-3
  222. Format/Info                              : Audio Coding 3
  223. Commercial name                          : Dolby Digital
  224. Codec ID                                 : A_AC3
  225. Duration                                 : 2 h 18 min
  226. Bit rate mode                            : Constant
  227. Bit rate                                 : 192 kb/s
  228. Channel(s)                               : 2 channels
  229. Channel layout                           : L R
  230. Sampling rate                            : 48.0 kHz
  231. Frame rate                               : 31.250 FPS (1536 SPF)
  232. Bit depth                                : 16 bits
  233. Compression mode                         : Lossy
  234. Stream size                              : 190 MiB (1%)
  235. Title                                    : The.Matrix.Reloaded.2003.REMASTERED.1080p.BluRay.REMUX.AVC.DTS-HD.MA.TrueHD.7.1.Atmos-FGT
  236. Language                                 : Spanish
  237. Service kind                             : Complete Main
  238. Default                                  : No
  239. Forced                                   : No

  240. Audio #11
  241. ID                                       : 12
  242. Format                                   : AC-3
  243. Format/Info                              : Audio Coding 3
  244. Commercial name                          : Dolby Digital
  245. Codec ID                                 : A_AC3
  246. Duration                                 : 2 h 18 min
  247. Bit rate mode                            : Constant
  248. Bit rate                                 : 640 kb/s
  249. Channel(s)                               : 6 channels
  250. Channel layout                           : L R C LFE Ls Rs
  251. Sampling rate                            : 48.0 kHz
  252. Frame rate                               : 31.250 FPS (1536 SPF)
  253. Bit depth                                : 16 bits
  254. Compression mode                         : Lossy
  255. Stream size                              : 633 MiB (2%)
  256. Title                                    : The.Matrix.Reloaded.2003.REMASTERED.1080p.BluRay.REMUX.AVC.DTS-HD.MA.TrueHD.7.1.Atmos-FGT
  257. Language                                 : Japanese
  258. Service kind                             : Complete Main
  259. Default                                  : No
  260. Forced                                   : No

  261. Audio #12
  262. ID                                       : 13
  263. Format                                   : AC-3
  264. Format/Info                              : Audio Coding 3
  265. Commercial name                          : Dolby Digital
  266. Codec ID                                 : A_AC3
  267. Duration                                 : 2 h 18 min
  268. Bit rate mode                            : Constant
  269. Bit rate                                 : 192 kb/s
  270. Channel(s)                               : 2 channels
  271. Channel layout                           : L R
  272. Sampling rate                            : 48.0 kHz
  273. Frame rate                               : 31.250 FPS (1536 SPF)
  274. Bit depth                                : 16 bits
  275. Compression mode                         : Lossy
  276. Stream size                              : 190 MiB (1%)
  277. Title                                    : The.Matrix.Reloaded.2003.REMASTERED.1080p.BluRay.REMUX.AVC.DTS-HD.MA.TrueHD.7.1.Atmos-FGT
  278. Language                                 : Japanese
  279. Service kind                             : Complete Main
  280. Default                                  : No
  281. Forced                                   : No

  282. Audio #13
  283. ID                                       : 14
  284. Format                                   : AC-3
  285. Format/Info                              : Audio Coding 3
  286. Commercial name                          : Dolby Digital
  287. Codec ID                                 : A_AC3
  288. Duration                                 : 2 h 18 min
  289. Bit rate mode                            : Constant
  290. Bit rate                                 : 192 kb/s
  291. Channel(s)                               : 2 channels
  292. Channel layout                           : L R
  293. Sampling rate                            : 48.0 kHz
  294. Frame rate                               : 31.250 FPS (1536 SPF)
  295. Bit depth                                : 16 bits
  296. Compression mode                         : Lossy
  297. Stream size                              : 190 MiB (1%)
  298. Title                                    : The.Matrix.Reloaded.2003.REMASTERED.1080p.BluRay.REMUX.AVC.DTS-HD.MA.TrueHD.7.1.Atmos-FGT
  299. Language                                 : English
  300. Service kind                             : Complete Main
  301. Default                                  : No
  302. Forced                                   : No

  303. Audio #14
  304. ID                                       : 15
  305. Format                                   : AC-3
  306. Format/Info                              : Audio Coding 3
  307. Commercial name                          : Dolby Digital
  308. Codec ID                                 : A_AC3
  309. Duration                                 : 2 h 18 min
  310. Bit rate mode                            : Constant
  311. Bit rate                                 : 192 kb/s
  312. Channel(s)                               : 2 channels
  313. Channel layout                           : L R
  314. Sampling rate                            : 48.0 kHz
  315. Frame rate                               : 31.250 FPS (1536 SPF)
  316. Bit depth                                : 16 bits
  317. Compression mode                         : Lossy
  318. Stream size                              : 190 MiB (1%)
  319. Title                                    : The.Matrix.Reloaded.2003.REMASTERED.1080p.BluRay.REMUX.AVC.DTS-HD.MA.TrueHD.7.1.Atmos-FGT
  320. Language                                 : English
  321. Service kind                             : Complete Main
  322. Default                                  : No
  323. Forced                                   : No

  324. Text #1
  325. ID                                       : 16
  326. Format                                   : PGS
  327. Muxing mode                              : zlib
  328. Codec ID                                 : S_HDMV/PGS
  329. Codec ID/Info                            : Picture based subtitle format used on BDs/HD-DVDs
  330. Duration                                 : 2 h 16 min
  331. Bit rate                                 : 26.3 kb/s
  332. Count of elements                        : 2458
  333. Stream size                              : 25.7 MiB (0%)
  334. Title                                    : English-PGS
  335. Language                                 : English
  336. Default                                  : Yes
  337. Forced                                   : No

  338. Text #2
  339. ID                                       : 17
  340. Format                                   : PGS
  341. Muxing mode                              : zlib
  342. Codec ID                                 : S_HDMV/PGS
  343. Codec ID/Info                            : Picture based subtitle format used on BDs/HD-DVDs
  344. Duration                                 : 2 h 16 min
  345. Bit rate                                 : 19.9 kb/s
  346. Count of elements                        : 2696
  347. Stream size                              : 19.4 MiB (0%)
  348. Title                                    : Japanese-PGS
  349. Language                                 : Japanese
  350. Default                                  : No
  351. Forced                                   : No

  352. Text #3
  353. ID                                       : 18
  354. Format                                   : PGS
  355. Muxing mode                              : zlib
  356. Codec ID                                 : S_HDMV/PGS
  357. Codec ID/Info                            : Picture based subtitle format used on BDs/HD-DVDs
  358. Duration                                 : 2 h 16 min
  359. Bit rate                                 : 22.1 kb/s
  360. Count of elements                        : 2612
  361. Stream size                              : 21.6 MiB (0%)
  362. Title                                    : French-PGS
  363. Language                                 : French
  364. Default                                  : No
  365. Forced                                   : No

  366. Text #4
  367. ID                                       : 19
  368. Format                                   : PGS
  369. Muxing mode                              : zlib
  370. Codec ID                                 : S_HDMV/PGS
  371. Codec ID/Info                            : Picture based subtitle format used on BDs/HD-DVDs
  372. Duration                                 : 2 h 16 min
  373. Bit rate                                 : 28.0 kb/s
  374. Count of elements                        : 2478
  375. Stream size                              : 27.4 MiB (0%)
  376. Title                                    : German-PGS
  377. Language                                 : German
  378. Default                                  : No
  379. Forced                                   : No

  380. Text #5
  381. ID                                       : 20
  382. Format                                   : PGS
  383. Muxing mode                              : zlib
  384. Codec ID                                 : S_HDMV/PGS
  385. Codec ID/Info                            : Picture based subtitle format used on BDs/HD-DVDs
  386. Duration                                 : 2 h 16 min
  387. Bit rate                                 : 27.5 kb/s
  388. Count of elements                        : 2484
  389. Stream size                              : 26.9 MiB (0%)
  390. Title                                    : Italian-PGS
  391. Language                                 : Italian
  392. Default                                  : No
  393. Forced                                   : No

  394. Text #6
  395. ID                                       : 21
  396. Format                                   : PGS
  397. Muxing mode                              : zlib
  398. Codec ID                                 : S_HDMV/PGS
  399. Codec ID/Info                            : Picture based subtitle format used on BDs/HD-DVDs
  400. Duration                                 : 2 h 16 min
  401. Bit rate                                 : 26.5 kb/s
  402. Count of elements                        : 2589
  403. Stream size                              : 25.9 MiB (0%)
  404. Title                                    : Spanish-PGS
  405. Language                                 : Spanish
  406. Default                                  : No
  407. Forced                                   : No

  408. Text #7
  409. ID                                       : 22
  410. Format                                   : PGS
  411. Muxing mode                              : zlib
  412. Codec ID                                 : S_HDMV/PGS
  413. Codec ID/Info                            : Picture based subtitle format used on BDs/HD-DVDs
  414. Duration                                 : 2 h 16 min
  415. Bit rate                                 : 21.3 kb/s
  416. Count of elements                        : 1997
  417. Stream size                              : 20.9 MiB (0%)
  418. Title                                    : Dutch-PGS
  419. Language                                 : Dutch
  420. Default                                  : No
  421. Forced                                   : No

  422. Text #8
  423. ID                                       : 23
  424. Format                                   : PGS
  425. Muxing mode                              : zlib
  426. Codec ID                                 : S_HDMV/PGS
  427. Codec ID/Info                            : Picture based subtitle format used on BDs/HD-DVDs
  428. Duration                                 : 2 h 17 min
  429. Bit rate                                 : 24.9 kb/s
  430. Count of elements                        : 2381
  431. Stream size                              : 24.5 MiB (0%)
  432. Title                                    : Spanish-PGS
  433. Language                                 : Spanish
  434. Default                                  : No
  435. Forced                                   : No

  436. Text #9
  437. ID                                       : 24
  438. Format                                   : PGS
  439. Muxing mode                              : zlib
  440. Codec ID                                 : S_HDMV/PGS
  441. Codec ID/Info                            : Picture based subtitle format used on BDs/HD-DVDs
  442. Duration                                 : 2 h 16 min
  443. Bit rate                                 : 24.9 kb/s
  444. Count of elements                        : 2133
  445. Stream size                              : 24.4 MiB (0%)
  446. Title                                    : Portuguese-PGS
  447. Language                                 : Portuguese
  448. Default                                  : No
  449. Forced                                   : No

  450. Text #10
  451. ID                                       : 25
  452. Format                                   : PGS
  453. Muxing mode                              : zlib
  454. Codec ID                                 : S_HDMV/PGS
  455. Codec ID/Info                            : Picture based subtitle format used on BDs/HD-DVDs
  456. Duration                                 : 2 h 17 min
  457. Bit rate                                 : 35.0 kb/s
  458. Count of elements                        : 3606
  459. Stream size                              : 34.5 MiB (0%)
  460. Title                                    : Japanese-PGS
  461. Language                                 : Japanese
  462. Default                                  : No
  463. Forced                                   : No

  464. Text #11
  465. ID                                       : 26
  466. Format                                   : PGS
  467. Muxing mode                              : zlib
  468. Codec ID                                 : S_HDMV/PGS
  469. Codec ID/Info                            : Picture based subtitle format used on BDs/HD-DVDs
  470. Duration                                 : 2 h 17 min
  471. Bit rate                                 : 33.0 kb/s
  472. Count of elements                        : 3410
  473. Stream size                              : 32.6 MiB (0%)
  474. Title                                    : Japanese-PGS
  475. Language                                 : Japanese
  476. Default                                  : No
  477. Forced                                   : No

  478. Text #12
  479. ID                                       : 27
  480. Format                                   : PGS
  481. Muxing mode                              : zlib
  482. Codec ID                                 : S_HDMV/PGS
  483. Codec ID/Info                            : Picture based subtitle format used on BDs/HD-DVDs
  484. Duration                                 : 1 h 13 min
  485. Bit rate                                 : 414 b/s
  486. Count of elements                        : 113
  487. Stream size                              : 224 KiB (0%)
  488. Title                                    : Japanese-PGS
  489. Language                                 : Japanese
  490. Default                                  : No
  491. Forced                                   : No

  492. Menu
  493. 00:00:00.000                             : en:Chapter 01
  494. 00:03:52.232                             : en:Chapter 02
  495. 00:08:57.370                             : en:Chapter 03
  496. 00:12:18.904                             : en:Chapter 04
  497. 00:16:26.318                             : en:Chapter 05
  498. 00:19:45.184                             : en:Chapter 06
  499. 00:23:31.410                             : en:Chapter 07
  500. 00:27:28.813                             : en:Chapter 08
  501. 00:32:03.713                             : en:Chapter 09
  502. 00:33:45.106                             : en:Chapter 10
  503. 00:37:59.151                             : en:Chapter 11
  504. 00:40:57.621                             : en:Chapter 12
  505. 00:43:46.957                             : en:Chapter 13
  506. 00:50:44.708                             : en:Chapter 14
  507. 00:55:10.473                             : en:Chapter 15
  508. 01:00:04.892                             : en:Chapter 16
  509. 01:02:51.642                             : en:Chapter 17
  510. 01:08:54.130                             : en:Chapter 18
  511. 01:13:08.634                             : en:Chapter 19
  512. 01:16:23.245                             : en:Chapter 20
  513. 01:20:33.829                             : en:Chapter 21
  514. 01:22:49.130                             : en:Chapter 22
  515. 01:26:14.502                             : en:Chapter 23
  516. 01:29:54.889                             : en:Chapter 24
  517. 01:32:52.900                             : en:Chapter 25
  518. 01:37:12.827                             : en:Chapter 26
  519. 01:40:53.130                             : en:Chapter 27
  520. 01:44:59.710                             : en:Chapter 28
  521. 01:48:13.945                             : en:Chapter 29
  522. 01:52:27.574                             : en:Chapter 30
  523. 01:55:44.938                             : en:Chapter 31
  524. 01:57:39.552                             : en:Chapter 32
  525. 02:01:53.472                             : en:Chapter 33
  526. 02:04:20.453                             : en:Chapter 34
  527. 02:07:05.951                             : en:Chapter 35
  528. 02:16:31.683                             : en:Chapter 36
复制代码

复制代码

黑客帝国2:重装上阵/黑客帝国2 The.Matrix.Reloaded.2003.REMASTERED.1080p.BluRay.REMUX.AVC.DTS-HD.MA.TrueHD.7.1.Atmos-FGT 32.24GB-2.png 黑客帝国2:重装上阵/黑客帝国2 The.Matrix.Reloaded.2003.REMASTERED.1080p.BluRay.REMUX.AVC.DTS-HD.MA.TrueHD.7.1.Atmos-FGT 32.24GB-3.png 黑客帝国2:重装上阵/黑客帝国2 The.Matrix.Reloaded.2003.REMASTERED.1080p.BluRay.REMUX.AVC.DTS-HD.MA.TrueHD.7.1.Atmos-FGT 32.24GB-4.png





回复

使用道具 举报

级别:荣升主角 Lv.5

注册时间
2018-5-27
最后登录
2019-3-21
听众
4
收听
0
主题
0
蓝光币
17 枚
贡献
0 点
发表于 2019-1-12 17:56:21 | 显示全部楼层
感谢分享!
回复

使用道具 举报

懒得打字嘛,点击右侧快捷回复 【右侧内容,后台自定义】
您需要登录后才可以回帖 登录 | 立即注册

本版积分规则

QQ|Archiver|手机版|小黑屋|中国高清网 |网站地图

GMT+8, 2019-3-22 10:15 , Processed in 0.278088 second(s), 39 queries .

Powered by HDchina X3.4

Copyright 2017-2018©HDchina.All right reserved

返回顶部 联系我们