你所知道的4K资源这里全部都有 4K电影 | 4K视频 | 4K壁纸 | 4K MV 怎么播放4K视频 | 4K电视演示片

教你玩转4K私人与家庭影院存储 NAS组装 | 黑群辉 家庭/影院Nas论坛

4K家庭影院信号源与视频设备知识 4K蓝光高清播放机 - 那个品牌好? 4K投影机论坛 | 4K电视机论坛

手把手教你搭建属于自己的家庭影院 4K家庭影院案例 | 家庭影院音频 4K家庭影院论坛

查看: 92|回复: 0

[科幻片] 黑客帝国3:矩阵革命/骇客任务完结篇:最后战役 The.Matrix.Revolutions.2003.REMASTERED.1080p.BluRay.REMUX.AVC.DTS-HD.MA.TrueHD.7.1.Atmos-FGT 30.61GB

[复制链接]

 成长值: 710

级别:资源管理组

注册时间
2017-10-20
最后登录
2019-3-22
听众
0
收听
0
主题
76497
蓝光币
134741 枚
贡献
146306 点
发表于 2018-12-16 00:00:01 | 显示全部楼层 |阅读模式

黑客帝国3:矩阵反动/骇客使命结束篇:最初战争 The.Matrix.Revolutions.2003.REMASTERED.1080p.BluRay.REMUX.AVC.DTS-HD.MA.TrueHD.7.1.Atmos-FGT 30.61GB-1.jpg
◎译  名 黑客帝国3:矩阵反动 / 骇客使命结束篇:最初战争 / 廿二世纪杀人收集3:惊变世纪 / 黑客帝国3
◎片  名 黑客帝国3:矩阵反动 The Matrix Revolutions
◎年  代 2003
◎国  家 美国 / 澳大利亚
◎类  别 行动 / 科幻
◎语  言 英语 / 法语
◎上映日期 2003-11-05(美国/中国大陆)
◎IMDb评分  6.7/10 from 406,028 users
◎IMDb链接  http://www.imdb.com/title/tt0242653/
◎豆瓣评分 8.6/10 from 187056 users
◎豆瓣链接 https://movie.douban.com/subject/1302467/
◎片  长 129 分钟
◎导  演 莉莉·沃卓斯基 / 拉娜·沃卓斯基
◎主  演 基努·里维斯
      劳伦斯·菲什伯恩
      凯瑞-安·莫斯
      莫妮卡·贝鲁奇
      凯特·宾汉
      雨果·维文
      贾达·萍克·史姑娘
      邹兆龙
      朗贝尔·维尔森

◎简  介 

  第二集合,尼奥(基努·里维斯 Keanu Reeves 饰)没有能从内部摧毁“母体”,他的身材在实在天下的飞船上陷于昏迷,思惟却被困在介于“母体”和实在天下的中心地带,这个地方由“火车人”控制。墨菲斯(劳伦斯·菲什伯恩 Laurence Fishburne 饰)和崔妮蒂(凯瑞-安·莫斯 Carrie-Anne Moss 饰)等人晓得了尼奥的情况,在保护天使的率领下, 找到了“火车人”的控制者梅螺纹奇,经过一番激斗,将尼奥救了出来。
  此时,电子乌贼军队对锡安倡议了狠恶的进犯,人类构造一切机甲战士展开顽强的抵抗,情势危在旦夕;尼奥和崔妮蒂驾驶了一艘飞船克服重重困难,到达机械城市,尼奥终究见到了机械天下的统治者“机械大帝”,双方谈判并告竣了协议:尼奥撤除不受“母体”控制的史姑娘,以调换锡安的战争。
  在“母体”中,尼奥和史姑娘展开了关系人类生死生死的最初决战。

◎获奖情况 

  第10届中国电影华表奖 (2004)
  优异译制片奖(提名)


  1. Video
  2. ID                                       : 1
  3. Format                                   : AVC
  4. Format/Info                              : Advanced Video Codec
  5. Format profile                           : [url=/cdn-cgi/l/email-protection][email protected][/url]
  6. Format settings                          : CABAC / 4 Ref Frames
  7. Format settings, CABAC                   : Yes
  8. Format settings, ReFrames                : 4 frames
  9. Format settings, GOP                     : M=3, N=12
  10. Codec ID                                 : V_MPEG4/ISO/AVC
  11. Duration                                 : 2 h 9 min
  12. Bit rate mode                            : Variable
  13. Bit rate                                 : 21.2 Mb/s
  14. Maximum bit rate                         : 23.6 Mb/s
  15. Width                                    : 1 920 pixels
  16. Height                                   : 1 080 pixels
  17. Display aspect ratio                     : 16:9
  18. Frame rate mode                          : Constant
  19. Frame rate                               : 23.976 (24000/1001) FPS
  20. Color space                              : YUV
  21. Chroma subsampling                       : 4:2:0
  22. Bit depth                                : 8 bits
  23. Scan type                                : Progressive
  24. Bits/(Pixel*Frame)                       : 0.427
  25. Stream size                              : 19.2 GiB (63%)
  26. Title                                    : The.Matrix.Revolutions.2003.REMASTERED.1080p.BluRay.REMUX.AVC.DTS-HD.MA.TrueHD.7.1.Atmos-FGT
  27. Language                                 : English
  28. Default                                  : No
  29. Forced                                   : No

  30. Audio #1
  31. ID                                       : 2
  32. Format                                   : MLP FBA 16-ch
  33. Format/Info                              : Meridian Lossless Packing FBA with 16-channel presentation
  34. Commercial name                          : Dolby TrueHD with Dolby Atmos
  35. Codec ID                                 : A_TRUEHD
  36. Duration                                 : 2 h 9 min
  37. Bit rate mode                            : Variable
  38. Bit rate                                 : 3 527 kb/s
  39. Maximum bit rate                         : 6 264 kb/s
  40. Channel(s)                               : 8 channels
  41. Channel layout                           : L R C LFE Ls Rs Lb Rb
  42. Sampling rate                            : 48.0 kHz
  43. Frame rate                               : 1 200.000 FPS (40 SPF)
  44. Compression mode                         : Lossless
  45. Stream size                              : 3.19 GiB (10%)
  46. Title                                    : The.Matrix.Revolutions.2003.REMASTERED.1080p.BluRay.REMUX.AVC.DTS-HD.MA.TrueHD.7.1.Atmos-FGT
  47. Language                                 : English
  48. Default                                  : Yes
  49. Forced                                   : No
  50. Number of dynamic objects                : 11
  51. Bed channel count                        : 1 channel
  52. Bed channel configuration                : LFE

  53. Audio #2
  54. ID                                       : 3
  55. Format                                   : DTS XLL
  56. Format/Info                              : Digital Theater Systems
  57. Commercial name                          : DTS-HD Master Audio
  58. Codec ID                                 : A_DTS
  59. Duration                                 : 2 h 9 min
  60. Bit rate mode                            : Variable
  61. Bit rate                                 : 3 710 kb/s
  62. Channel(s)                               : 8 channels
  63. Channel layout                           : C L R LFE Lb Rb Lss Rss
  64. Sampling rate                            : 48.0 kHz
  65. Frame rate                               : 93.750 FPS (512 SPF)
  66. Bit depth                                : 24 bits
  67. Compression mode                         : Lossless
  68. Stream size                              : 3.35 GiB (11%)
  69. Title                                    : The.Matrix.Revolutions.2003.REMASTERED.1080p.BluRay.REMUX.AVC.DTS-HD.MA.TrueHD.7.1.Atmos-FGT
  70. Language                                 : English
  71. Default                                  : No
  72. Forced                                   : No

  73. Audio #3
  74. ID                                       : 4
  75. Format                                   : AC-3
  76. Format/Info                              : Audio Coding 3
  77. Commercial name                          : Dolby Digital
  78. Codec ID                                 : A_AC3
  79. Duration                                 : 2 h 9 min
  80. Bit rate mode                            : Constant
  81. Bit rate                                 : 448 kb/s
  82. Channel(s)                               : 6 channels
  83. Channel layout                           : L R C LFE Ls Rs
  84. Sampling rate                            : 48.0 kHz
  85. Frame rate                               : 31.250 FPS (1536 SPF)
  86. Bit depth                                : 16 bits
  87. Compression mode                         : Lossy
  88. Stream size                              : 414 MiB (1%)
  89. Title                                    : The.Matrix.Revolutions.2003.REMASTERED.1080p.BluRay.REMUX.AVC.DTS-HD.MA.TrueHD.7.1.Atmos-FGT
  90. Language                                 : English
  91. Service kind                             : Complete Main
  92. Default                                  : No
  93. Forced                                   : No

  94. Audio #4
  95. ID                                       : 5
  96. Format                                   : AC-3
  97. Format/Info                              : Audio Coding 3
  98. Commercial name                          : Dolby Digital
  99. Codec ID                                 : A_AC3
  100. Duration                                 : 2 h 9 min
  101. Bit rate mode                            : Constant
  102. Bit rate                                 : 640 kb/s
  103. Channel(s)                               : 6 channels
  104. Channel layout                           : L R C LFE Ls Rs
  105. Sampling rate                            : 48.0 kHz
  106. Frame rate                               : 31.250 FPS (1536 SPF)
  107. Bit depth                                : 16 bits
  108. Compression mode                         : Lossy
  109. Stream size                              : 592 MiB (2%)
  110. Title                                    : The.Matrix.Revolutions.2003.REMASTERED.1080p.BluRay.REMUX.AVC.DTS-HD.MA.TrueHD.7.1.Atmos-FGT
  111. Language                                 : English
  112. Service kind                             : Complete Main
  113. Default                                  : No
  114. Forced                                   : No

  115. Audio #5
  116. ID                                       : 6
  117. Format                                   : AC-3
  118. Format/Info                              : Audio Coding 3
  119. Commercial name                          : Dolby Digital
  120. Codec ID                                 : A_AC3
  121. Duration                                 : 2 h 9 min
  122. Bit rate mode                            : Constant
  123. Bit rate                                 : 640 kb/s
  124. Channel(s)                               : 6 channels
  125. Channel layout                           : L R C LFE Ls Rs
  126. Sampling rate                            : 48.0 kHz
  127. Frame rate                               : 31.250 FPS (1536 SPF)
  128. Bit depth                                : 16 bits
  129. Compression mode                         : Lossy
  130. Stream size                              : 592 MiB (2%)
  131. Title                                    : The.Matrix.Revolutions.2003.REMASTERED.1080p.BluRay.REMUX.AVC.DTS-HD.MA.TrueHD.7.1.Atmos-FGT
  132. Language                                 : French
  133. Service kind                             : Complete Main
  134. Default                                  : No
  135. Forced                                   : No

  136. Audio #6
  137. ID                                       : 7
  138. Format                                   : AC-3
  139. Format/Info                              : Audio Coding 3
  140. Commercial name                          : Dolby Digital
  141. Codec ID                                 : A_AC3
  142. Duration                                 : 2 h 9 min
  143. Bit rate mode                            : Constant
  144. Bit rate                                 : 640 kb/s
  145. Channel(s)                               : 6 channels
  146. Channel layout                           : L R C LFE Ls Rs
  147. Sampling rate                            : 48.0 kHz
  148. Frame rate                               : 31.250 FPS (1536 SPF)
  149. Bit depth                                : 16 bits
  150. Compression mode                         : Lossy
  151. Stream size                              : 592 MiB (2%)
  152. Title                                    : The.Matrix.Revolutions.2003.REMASTERED.1080p.BluRay.REMUX.AVC.DTS-HD.MA.TrueHD.7.1.Atmos-FGT
  153. Language                                 : German
  154. Service kind                             : Complete Main
  155. Default                                  : No
  156. Forced                                   : No

  157. Audio #7
  158. ID                                       : 8
  159. Format                                   : AC-3
  160. Format/Info                              : Audio Coding 3
  161. Commercial name                          : Dolby Digital
  162. Codec ID                                 : A_AC3
  163. Duration                                 : 2 h 9 min
  164. Bit rate mode                            : Constant
  165. Bit rate                                 : 640 kb/s
  166. Channel(s)                               : 6 channels
  167. Channel layout                           : L R C LFE Ls Rs
  168. Sampling rate                            : 48.0 kHz
  169. Frame rate                               : 31.250 FPS (1536 SPF)
  170. Bit depth                                : 16 bits
  171. Compression mode                         : Lossy
  172. Stream size                              : 592 MiB (2%)
  173. Title                                    : The.Matrix.Revolutions.2003.REMASTERED.1080p.BluRay.REMUX.AVC.DTS-HD.MA.TrueHD.7.1.Atmos-FGT
  174. Language                                 : Italian
  175. Service kind                             : Complete Main
  176. Default                                  : No
  177. Forced                                   : No

  178. Audio #8
  179. ID                                       : 9
  180. Format                                   : AC-3
  181. Format/Info                              : Audio Coding 3
  182. Commercial name                          : Dolby Digital
  183. Codec ID                                 : A_AC3
  184. Duration                                 : 2 h 9 min
  185. Bit rate mode                            : Constant
  186. Bit rate                                 : 640 kb/s
  187. Channel(s)                               : 6 channels
  188. Channel layout                           : L R C LFE Ls Rs
  189. Sampling rate                            : 48.0 kHz
  190. Frame rate                               : 31.250 FPS (1536 SPF)
  191. Bit depth                                : 16 bits
  192. Compression mode                         : Lossy
  193. Stream size                              : 592 MiB (2%)
  194. Title                                    : The.Matrix.Revolutions.2003.REMASTERED.1080p.BluRay.REMUX.AVC.DTS-HD.MA.TrueHD.7.1.Atmos-FGT
  195. Language                                 : Spanish
  196. Service kind                             : Complete Main
  197. Default                                  : No
  198. Forced                                   : No

  199. Audio #9
  200. ID                                       : 10
  201. Format                                   : AC-3
  202. Format/Info                              : Audio Coding 3
  203. Commercial name                          : Dolby Digital
  204. Codec ID                                 : A_AC3
  205. Duration                                 : 2 h 9 min
  206. Bit rate mode                            : Constant
  207. Bit rate                                 : 192 kb/s
  208. Channel(s)                               : 2 channels
  209. Channel layout                           : L R
  210. Sampling rate                            : 48.0 kHz
  211. Frame rate                               : 31.250 FPS (1536 SPF)
  212. Bit depth                                : 16 bits
  213. Compression mode                         : Lossy
  214. Stream size                              : 178 MiB (1%)
  215. Title                                    : The.Matrix.Revolutions.2003.REMASTERED.1080p.BluRay.REMUX.AVC.DTS-HD.MA.TrueHD.7.1.Atmos-FGT
  216. Language                                 : Spanish
  217. Service kind                             : Complete Main
  218. Default                                  : No
  219. Forced                                   : No

  220. Audio #10
  221. ID                                       : 11
  222. Format                                   : AC-3
  223. Format/Info                              : Audio Coding 3
  224. Commercial name                          : Dolby Digital
  225. Codec ID                                 : A_AC3
  226. Duration                                 : 2 h 9 min
  227. Bit rate mode                            : Constant
  228. Bit rate                                 : 192 kb/s
  229. Channel(s)                               : 2 channels
  230. Channel layout                           : L R
  231. Sampling rate                            : 48.0 kHz
  232. Frame rate                               : 31.250 FPS (1536 SPF)
  233. Bit depth                                : 16 bits
  234. Compression mode                         : Lossy
  235. Stream size                              : 178 MiB (1%)
  236. Title                                    : The.Matrix.Revolutions.2003.REMASTERED.1080p.BluRay.REMUX.AVC.DTS-HD.MA.TrueHD.7.1.Atmos-FGT
  237. Language                                 : Portuguese
  238. Service kind                             : Complete Main
  239. Default                                  : No
  240. Forced                                   : No

  241. Audio #11
  242. ID                                       : 12
  243. Format                                   : AC-3
  244. Format/Info                              : Audio Coding 3
  245. Commercial name                          : Dolby Digital
  246. Codec ID                                 : A_AC3
  247. Duration                                 : 2 h 9 min
  248. Bit rate mode                            : Constant
  249. Bit rate                                 : 640 kb/s
  250. Channel(s)                               : 6 channels
  251. Channel layout                           : L R C LFE Ls Rs
  252. Sampling rate                            : 48.0 kHz
  253. Frame rate                               : 31.250 FPS (1536 SPF)
  254. Bit depth                                : 16 bits
  255. Compression mode                         : Lossy
  256. Stream size                              : 592 MiB (2%)
  257. Title                                    : The.Matrix.Revolutions.2003.REMASTERED.1080p.BluRay.REMUX.AVC.DTS-HD.MA.TrueHD.7.1.Atmos-FGT
  258. Language                                 : Japanese
  259. Service kind                             : Complete Main
  260. Default                                  : No
  261. Forced                                   : No

  262. Audio #12
  263. ID                                       : 13
  264. Format                                   : AC-3
  265. Format/Info                              : Audio Coding 3
  266. Commercial name                          : Dolby Digital
  267. Codec ID                                 : A_AC3
  268. Duration                                 : 2 h 9 min
  269. Bit rate mode                            : Constant
  270. Bit rate                                 : 192 kb/s
  271. Channel(s)                               : 2 channels
  272. Channel layout                           : L R
  273. Sampling rate                            : 48.0 kHz
  274. Frame rate                               : 31.250 FPS (1536 SPF)
  275. Bit depth                                : 16 bits
  276. Compression mode                         : Lossy
  277. Stream size                              : 178 MiB (1%)
  278. Title                                    : The.Matrix.Revolutions.2003.REMASTERED.1080p.BluRay.REMUX.AVC.DTS-HD.MA.TrueHD.7.1.Atmos-FGT
  279. Language                                 : Japanese
  280. Service kind                             : Complete Main
  281. Default                                  : No
  282. Forced                                   : No

  283. Audio #13
  284. ID                                       : 14
  285. Format                                   : AC-3
  286. Format/Info                              : Audio Coding 3
  287. Commercial name                          : Dolby Digital
  288. Codec ID                                 : A_AC3
  289. Duration                                 : 2 h 9 min
  290. Bit rate mode                            : Constant
  291. Bit rate                                 : 192 kb/s
  292. Channel(s)                               : 2 channels
  293. Channel layout                           : L R
  294. Sampling rate                            : 48.0 kHz
  295. Frame rate                               : 31.250 FPS (1536 SPF)
  296. Bit depth                                : 16 bits
  297. Compression mode                         : Lossy
  298. Stream size                              : 178 MiB (1%)
  299. Title                                    : The.Matrix.Revolutions.2003.REMASTERED.1080p.BluRay.REMUX.AVC.DTS-HD.MA.TrueHD.7.1.Atmos-FGT
  300. Language                                 : English
  301. Service kind                             : Complete Main
  302. Default                                  : No
  303. Forced                                   : No

  304. Audio #14
  305. ID                                       : 15
  306. Format                                   : AC-3
  307. Format/Info                              : Audio Coding 3
  308. Commercial name                          : Dolby Digital
  309. Codec ID                                 : A_AC3
  310. Duration                                 : 2 h 9 min
  311. Bit rate mode                            : Constant
  312. Bit rate                                 : 192 kb/s
  313. Channel(s)                               : 2 channels
  314. Channel layout                           : L R
  315. Sampling rate                            : 48.0 kHz
  316. Frame rate                               : 31.250 FPS (1536 SPF)
  317. Bit depth                                : 16 bits
  318. Compression mode                         : Lossy
  319. Stream size                              : 178 MiB (1%)
  320. Title                                    : The.Matrix.Revolutions.2003.REMASTERED.1080p.BluRay.REMUX.AVC.DTS-HD.MA.TrueHD.7.1.Atmos-FGT
  321. Language                                 : English
  322. Service kind                             : Complete Main
  323. Default                                  : No
  324. Forced                                   : No

  325. Text #1
  326. ID                                       : 16
  327. Format                                   : PGS
  328. Muxing mode                              : zlib
  329. Codec ID                                 : S_HDMV/PGS
  330. Codec ID/Info                            : Picture based subtitle format used on BDs/HD-DVDs
  331. Duration                                 : 2 h 7 min
  332. Bit rate                                 : 23.1 kb/s
  333. Count of elements                        : 2220
  334. Stream size                              : 21.1 MiB (0%)
  335. Title                                    : English-PGS
  336. Language                                 : English
  337. Default                                  : Yes
  338. Forced                                   : No

  339. Text #2
  340. ID                                       : 17
  341. Format                                   : PGS
  342. Muxing mode                              : zlib
  343. Codec ID                                 : S_HDMV/PGS
  344. Codec ID/Info                            : Picture based subtitle format used on BDs/HD-DVDs
  345. Duration                                 : 1 h 58 min
  346. Bit rate                                 : 19.1 kb/s
  347. Count of elements                        : 2206
  348. Stream size                              : 16.2 MiB (0%)
  349. Title                                    : Japanese-PGS
  350. Language                                 : Japanese
  351. Default                                  : No
  352. Forced                                   : No

  353. Text #3
  354. ID                                       : 18
  355. Format                                   : PGS
  356. Muxing mode                              : zlib
  357. Codec ID                                 : S_HDMV/PGS
  358. Codec ID/Info                            : Picture based subtitle format used on BDs/HD-DVDs
  359. Duration                                 : 1 min 4 s
  360. Bit rate                                 : 4 102 b/s
  361. Count of elements                        : 4
  362. Stream size                              : 32.2 KiB (0%)
  363. Title                                    : Japanese-PGS
  364. Language                                 : Japanese
  365. Default                                  : No
  366. Forced                                   : No

  367. Text #4
  368. ID                                       : 19
  369. Format                                   : PGS
  370. Muxing mode                              : zlib
  371. Codec ID                                 : S_HDMV/PGS
  372. Codec ID/Info                            : Picture based subtitle format used on BDs/HD-DVDs
  373. Duration                                 : 2 h 7 min
  374. Bit rate                                 : 19.4 kb/s
  375. Count of elements                        : 2248
  376. Stream size                              : 17.8 MiB (0%)
  377. Title                                    : French-PGS
  378. Language                                 : French
  379. Default                                  : No
  380. Forced                                   : No

  381. Text #5
  382. ID                                       : 20
  383. Format                                   : PGS
  384. Muxing mode                              : zlib
  385. Codec ID                                 : S_HDMV/PGS
  386. Codec ID/Info                            : Picture based subtitle format used on BDs/HD-DVDs
  387. Duration                                 : 2 h 7 min
  388. Bit rate                                 : 27.1 kb/s
  389. Count of elements                        : 2270
  390. Stream size                              : 24.8 MiB (0%)
  391. Title                                    : German-PGS
  392. Language                                 : German
  393. Default                                  : No
  394. Forced                                   : No

  395. Text #6
  396. ID                                       : 21
  397. Format                                   : PGS
  398. Muxing mode                              : zlib
  399. Codec ID                                 : S_HDMV/PGS
  400. Codec ID/Info                            : Picture based subtitle format used on BDs/HD-DVDs
  401. Duration                                 : 2 h 7 min
  402. Bit rate                                 : 23.9 kb/s
  403. Count of elements                        : 2228
  404. Stream size                              : 21.8 MiB (0%)
  405. Title                                    : Italian-PGS
  406. Language                                 : Italian
  407. Default                                  : No
  408. Forced                                   : No

  409. Text #7
  410. ID                                       : 22
  411. Format                                   : PGS
  412. Muxing mode                              : zlib
  413. Codec ID                                 : S_HDMV/PGS
  414. Codec ID/Info                            : Picture based subtitle format used on BDs/HD-DVDs
  415. Duration                                 : 2 h 7 min
  416. Bit rate                                 : 21.4 kb/s
  417. Count of elements                        : 2106
  418. Stream size                              : 19.6 MiB (0%)
  419. Title                                    : Spanish-PGS
  420. Language                                 : Spanish
  421. Default                                  : No
  422. Forced                                   : No

  423. Text #8
  424. ID                                       : 23
  425. Format                                   : PGS
  426. Muxing mode                              : zlib
  427. Codec ID                                 : S_HDMV/PGS
  428. Codec ID/Info                            : Picture based subtitle format used on BDs/HD-DVDs
  429. Duration                                 : 2 h 7 min
  430. Bit rate                                 : 19.2 kb/s
  431. Count of elements                        : 1846
  432. Stream size                              : 17.6 MiB (0%)
  433. Title                                    : Dutch-PGS
  434. Language                                 : Dutch
  435. Default                                  : No
  436. Forced                                   : No

  437. Text #9
  438. ID                                       : 24
  439. Format                                   : PGS
  440. Muxing mode                              : zlib
  441. Codec ID                                 : S_HDMV/PGS
  442. Codec ID/Info                            : Picture based subtitle format used on BDs/HD-DVDs
  443. Duration                                 : 2 h 8 min
  444. Bit rate                                 : 22.0 kb/s
  445. Count of elements                        : 2114
  446. Stream size                              : 20.2 MiB (0%)
  447. Title                                    : Spanish-PGS
  448. Language                                 : Spanish
  449. Default                                  : No
  450. Forced                                   : No

  451. Text #10
  452. ID                                       : 25
  453. Format                                   : PGS
  454. Muxing mode                              : zlib
  455. Codec ID                                 : S_HDMV/PGS
  456. Codec ID/Info                            : Picture based subtitle format used on BDs/HD-DVDs
  457. Duration                                 : 2 h 7 min
  458. Bit rate                                 : 22.1 kb/s
  459. Count of elements                        : 1840
  460. Stream size                              : 20.2 MiB (0%)
  461. Title                                    : Portuguese-PGS
  462. Language                                 : Portuguese
  463. Default                                  : No
  464. Forced                                   : No

  465. Text #11
  466. ID                                       : 26
  467. Format                                   : PGS
  468. Muxing mode                              : zlib
  469. Codec ID                                 : S_HDMV/PGS
  470. Codec ID/Info                            : Picture based subtitle format used on BDs/HD-DVDs
  471. Duration                                 : 2 h 9 min
  472. Bit rate                                 : 35.1 kb/s
  473. Count of elements                        : 3161
  474. Stream size                              : 32.4 MiB (0%)
  475. Title                                    : Japanese-PGS
  476. Language                                 : Japanese
  477. Default                                  : No
  478. Forced                                   : No

  479. Text #12
  480. ID                                       : 27
  481. Format                                   : PGS
  482. Muxing mode                              : zlib
  483. Codec ID                                 : S_HDMV/PGS
  484. Codec ID/Info                            : Picture based subtitle format used on BDs/HD-DVDs
  485. Duration                                 : 2 h 3 min
  486. Bit rate                                 : 32.5 kb/s
  487. Count of elements                        : 3018
  488. Stream size                              : 28.7 MiB (0%)
  489. Title                                    : Japanese-PGS
  490. Language                                 : Japanese
  491. Default                                  : No
  492. Forced                                   : No

  493. Menu
  494. 00:00:00.000                             : en:Chapter 01
  495. 00:03:57.237                             : en:Chapter 02
  496. 00:07:34.954                             : en:Chapter 03
  497. 00:10:21.787                             : en:Chapter 04
  498. 00:14:46.302                             : en:Chapter 05
  499. 00:18:00.579                             : en:Chapter 06
  500. 00:23:35.080                             : en:Chapter 07
  501. 00:30:08.139                             : en:Chapter 08
  502. 00:35:37.468                             : en:Chapter 09
  503. 00:39:36.040                             : en:Chapter 10
  504. 00:43:00.744                             : en:Chapter 11
  505. 00:46:45.135                             : en:Chapter 12
  506. 00:49:04.524                             : en:Chapter 13
  507. 00:51:55.529                             : en:Chapter 14
  508. 00:58:02.562                             : en:Chapter 15
  509. 01:00:21.034                             : en:Chapter 16
  510. 01:02:31.748                             : en:Chapter 17
  511. 01:08:02.828                             : en:Chapter 18
  512. 01:10:31.143                             : en:Chapter 19
  513. 01:14:35.721                             : en:Chapter 20
  514. 01:18:25.283                             : en:Chapter 21
  515. 01:23:10.902                             : en:Chapter 22
  516. 01:25:57.735                             : en:Chapter 23
  517. 01:29:15.266                             : en:Chapter 24
  518. 01:31:53.591                             : en:Chapter 25
  519. 01:36:53.390                             : en:Chapter 26
  520. 01:41:57.194                             : en:Chapter 27
  521. 01:44:55.038                             : en:Chapter 28
  522. 01:48:08.565                             : en:Chapter 29
  523. 01:51:32.769                             : en:Chapter 30
  524. 01:55:07.817                             : en:Chapter 31
  525. 01:57:33.129                             : en:Chapter 32
  526. 02:00:14.290                             : en:Chapter 33
复制代码

复制代码

黑客帝国3:矩阵反动/骇客使命结束篇:最初战争 The.Matrix.Revolutions.2003.REMASTERED.1080p.BluRay.REMUX.AVC.DTS-HD.MA.TrueHD.7.1.Atmos-FGT 30.61GB-2.png 黑客帝国3:矩阵反动/骇客使命结束篇:最初战争 The.Matrix.Revolutions.2003.REMASTERED.1080p.BluRay.REMUX.AVC.DTS-HD.MA.TrueHD.7.1.Atmos-FGT 30.61GB-3.png 黑客帝国3:矩阵反动/骇客使命结束篇:最初战争 The.Matrix.Revolutions.2003.REMASTERED.1080p.BluRay.REMUX.AVC.DTS-HD.MA.TrueHD.7.1.Atmos-FGT 30.61GB-4.png





回复

使用道具 举报

懒得打字嘛,点击右侧快捷回复 【右侧内容,后台自定义】
您需要登录后才可以回帖 登录 | 立即注册

本版积分规则

QQ|Archiver|手机版|小黑屋|中国高清网 |网站地图

GMT+8, 2019-3-22 10:13 , Processed in 0.310390 second(s), 41 queries .

Powered by HDchina X3.4

Copyright 2017-2018©HDchina.All right reserved

返回顶部 联系我们