你所知道的4K资源这里全部都有 4K电影 | 4K视频 | 4K壁纸 | 4K MV 怎么播放4K视频 | 4K电视演示片

教你玩转4K私人与家庭影院存储 NAS组装 | 黑群辉 家庭/影院Nas论坛

4K家庭影院信号源与视频设备知识 4K蓝光高清播放机 - 那个品牌好? 4K投影机论坛 | 4K电视机论坛

手把手教你搭建属于自己的家庭影院 4K家庭影院案例 | 家庭影院音频 4K家庭影院论坛

查看: 87|回复: 0

[科幻片] 大地之王 Master.of.the.World.1961.1080p.BluRay.REMUX.AVC.DTS-HD.MA.2.0-FGT 26.76GB

[复制链接]

 成长值: 710

级别:资源管理组

注册时间
2017-10-20
最后登录
2019-3-22
听众
0
收听
0
主题
76497
蓝光币
134731 枚
贡献
146306 点
发表于 2018-12-10 23:59:25 | 显示全部楼层 |阅读模式

大地之王 Master.of.the.World.1961.1080p.BluRay.REMUX.AVC.DTS-HD.MA.2.0-FGT 26.76GB-1.jpg
◎译  名 大地之王
◎片  名 大地之王 Master of the World
◎年  代 1961
◎国  家 美国
◎类  别 科幻 / 冒险
◎语  言 英语
◎上映日期 1961-09-11
◎IMDb评分  6.0/10 from 2,384 users
◎IMDb链接  http://www.imdb.com/title/tt0055152/
◎豆瓣评分 今朝无人评价
◎豆瓣链接 https://movie.douban.com/subject/3136204/
◎片  长 102 分钟 / USA: 99 分钟(including prologue)
◎导  演 威廉·威特尼
◎主  演 文森特·普莱斯
      查尔斯·布朗森
      亨利·赫尔
      Mary Webster

◎简  介 

  90年月之前气概的航空冒险电影,有很多特按时代风味的壮观画面。


  1. Video
  2. ID                                       : 1
  3. Format                                   : AVC
  4. Format/Info                              : Advanced Video Codec
  5. Format profile                           : [url=/cdn-cgi/l/email-protection][email protected][/url]
  6. Format settings                          : CABAC / 3 Ref Frames
  7. Format settings, CABAC                   : Yes
  8. Format settings, ReFrames                : 3 frames
  9. Codec ID                                 : V_MPEG4/ISO/AVC
  10. Duration                                 : 1 h 42 min
  11. Bit rate mode                            : Variable
  12. Bit rate                                 : 34.0 Mb/s
  13. Maximum bit rate                         : 38.0 Mb/s
  14. Width                                    : 1 920 pixels
  15. Height                                   : 1 080 pixels
  16. Display aspect ratio                     : 16:9
  17. Frame rate mode                          : Constant
  18. Frame rate                               : 23.976 (24000/1001) FPS
  19. Color space                              : YUV
  20. Chroma subsampling                       : 4:2:0
  21. Bit depth                                : 8 bits
  22. Scan type                                : Progressive
  23. Bits/(Pixel*Frame)                       : 0.684
  24. Stream size                              : 24.4 GiB (91%)
  25. Title                                    : Master.of.the.World.1961.1080p.BluRay.REMUX.AVC.DTS-HD.MA.2.0-FGT
  26. Language                                 : English
  27. Default                                  : No
  28. Forced                                   : No
  29. Color range                              : Limited
  30. Color primaries                          : BT.709
  31. Transfer characteristics                 : BT.709
  32. Matrix coefficients                      : BT.709

  33. Audio #1
  34. ID                                       : 2
  35. Format                                   : DTS XLL
  36. Format/Info                              : Digital Theater Systems
  37. Commercial name                          : DTS-HD Master Audio
  38. Codec ID                                 : A_DTS
  39. Duration                                 : 1 h 42 min
  40. Bit rate mode                            : Variable
  41. Bit rate                                 : 1 567 kb/s
  42. Channel(s)                               : 2 channels
  43. Channel layout                           : L R
  44. Sampling rate                            : 48.0 kHz
  45. Frame rate                               : 93.750 FPS (512 SPF)
  46. Bit depth                                : 24 bits
  47. Compression mode                         : Lossless
  48. Stream size                              : 1.12 GiB (4%)
  49. Title                                    : Master.of.the.World.1961.1080p.BluRay.REMUX.AVC.DTS-HD.MA.2.0-FGT
  50. Language                                 : English
  51. Default                                  : Yes
  52. Forced                                   : No

  53. Audio #2
  54. ID                                       : 3
  55. Format                                   : DTS
  56. Format/Info                              : Digital Theater Systems
  57. Codec ID                                 : A_DTS
  58. Duration                                 : 1 h 42 min
  59. Bit rate mode                            : Constant
  60. Bit rate                                 : 384 kb/s
  61. Channel(s)                               : 2 channels
  62. Channel layout                           : L R
  63. Sampling rate                            : 48.0 kHz
  64. Frame rate                               : 93.750 FPS (512 SPF)
  65. Bit depth                                : 24 bits
  66. Compression mode                         : Lossy
  67. Stream size                              : 282 MiB (1%)
  68. Title                                    : Master.of.the.World.1961.1080p.BluRay.REMUX.AVC.DTS-HD.MA.2.0-FGT
  69. Language                                 : English
  70. Default                                  : No
  71. Forced                                   : No

  72. Audio #3
  73. ID                                       : 4
  74. Format                                   : DTS XLL
  75. Format/Info                              : Digital Theater Systems
  76. Commercial name                          : DTS-HD Master Audio
  77. Codec ID                                 : A_DTS
  78. Duration                                 : 1 h 42 min
  79. Bit rate mode                            : Variable
  80. Bit rate                                 : 734 kb/s
  81. Channel(s)                               : 2 channels
  82. Channel layout                           : L R
  83. Sampling rate                            : 48.0 kHz
  84. Frame rate                               : 93.750 FPS (512 SPF)
  85. Bit depth                                : 16 bits
  86. Compression mode                         : Lossless
  87. Stream size                              : 539 MiB (2%)
  88. Title                                    : Master.of.the.World.1961.1080p.BluRay.REMUX.AVC.DTS-HD.MA.2.0-FGT
  89. Language                                 : English
  90. Default                                  : No
  91. Forced                                   : No

  92. Audio #4
  93. ID                                       : 5
  94. Format                                   : DTS
  95. Format/Info                              : Digital Theater Systems
  96. Codec ID                                 : A_DTS
  97. Duration                                 : 1 h 42 min
  98. Bit rate mode                            : Constant
  99. Bit rate                                 : 384 kb/s
  100. Channel(s)                               : 2 channels
  101. Channel layout                           : L R
  102. Sampling rate                            : 48.0 kHz
  103. Frame rate                               : 93.750 FPS (512 SPF)
  104. Bit depth                                : 16 bits
  105. Compression mode                         : Lossy
  106. Stream size                              : 282 MiB (1%)
  107. Title                                    : Master.of.the.World.1961.1080p.BluRay.REMUX.AVC.DTS-HD.MA.2.0-FGT
  108. Language                                 : English
  109. Default                                  : No
  110. Forced                                   : No

  111. Audio #5
  112. ID                                       : 6
  113. Format                                   : AC-3
  114. Format/Info                              : Audio Coding 3
  115. Commercial name                          : Dolby Digital
  116. Codec ID                                 : A_AC3
  117. Duration                                 : 1 h 42 min
  118. Bit rate mode                            : Constant
  119. Bit rate                                 : 224 kb/s
  120. Channel(s)                               : 2 channels
  121. Channel layout                           : L R
  122. Sampling rate                            : 48.0 kHz
  123. Frame rate                               : 31.250 FPS (1536 SPF)
  124. Bit depth                                : 16 bits
  125. Compression mode                         : Lossy
  126. Stream size                              : 165 MiB (1%)
  127. Title                                    : Master.of.the.World.1961.1080p.BluRay.REMUX.AVC.DTS-HD.MA.2.0-FGT
  128. Language                                 : English
  129. Service kind                             : Complete Main
  130. Default                                  : No
  131. Forced                                   : No

  132. Text
  133. ID                                       : 7
  134. Format                                   : PGS
  135. Muxing mode                              : zlib
  136. Codec ID                                 : S_HDMV/PGS
  137. Codec ID/Info                            : Picture based subtitle format used on BDs/HD-DVDs
  138. Duration                                 : 1 h 35 min
  139. Bit rate                                 : 30.6 kb/s
  140. Count of elements                        : 2103
  141. Stream size                              : 21.0 MiB (0%)
  142. Title                                    : English-PGS
  143. Language                                 : English
  144. Default                                  : Yes
  145. Forced                                   : No

  146. Menu
  147. 00:00:00.000                             : en:Chapter 01
  148. 00:03:58.404                             : en:Chapter 02
  149. 00:06:36.270                             : en:Chapter 03
  150. 00:14:28.701                             : en:Chapter 04
  151. 00:25:45.168                             : en:Chapter 05
  152. 00:33:12.198                             : en:Chapter 06
  153. 00:46:12.060                             : en:Chapter 07
  154. 00:54:56.126                             : en:Chapter 08
  155. 01:04:40.710                             : en:Chapter 09
  156. 01:14:16.827                             : en:Chapter 10
  157. 01:26:50.038                             : en:Chapter 11
  158. 01:36:52.097                             : en:Chapter 12
复制代码

复制代码

大地之王 Master.of.the.World.1961.1080p.BluRay.REMUX.AVC.DTS-HD.MA.2.0-FGT 26.76GB-2.png 大地之王 Master.of.the.World.1961.1080p.BluRay.REMUX.AVC.DTS-HD.MA.2.0-FGT 26.76GB-3.png 大地之王 Master.of.the.World.1961.1080p.BluRay.REMUX.AVC.DTS-HD.MA.2.0-FGT 26.76GB-4.png





回复

使用道具 举报

懒得打字嘛,点击右侧快捷回复 【右侧内容,后台自定义】
您需要登录后才可以回帖 登录 | 立即注册

本版积分规则

QQ|Archiver|手机版|小黑屋|中国高清网 |网站地图

GMT+8, 2019-3-22 09:51 , Processed in 0.157851 second(s), 41 queries .

Powered by HDchina X3.4

Copyright 2017-2018©HDchina.All right reserved

返回顶部 联系我们