你所知道的4K资源这里全部都有 4K电影 | 4K视频 | 4K壁纸 | 4K MV 怎么播放4K视频 | 4K电视演示片

教你玩转4K私人与家庭影院存储 NAS组装 | 黑群辉 家庭/影院Nas论坛

4K家庭影院信号源与视频设备知识 4K蓝光高清播放机 - 那个品牌好? 4K投影机论坛 | 4K电视机论坛

手把手教你搭建属于自己的家庭影院 4K家庭影院案例 | 家庭影院音频 4K家庭影院论坛

查看: 100|回复: 2

[科幻片] 毒液:致命守护者/毒液 Venom.2018.1080p.BluRay.x264.DTS-HDC 11.76GB

[复制链接]

级别:资源管理组

UID
1
注册时间
2017-10-20
最后登录
2018-12-14
听众
0
收听
0
主题
73005
蓝光币
104512 枚
贡献
142813 点
发表于 2018-12-6 20:49:24 | 显示全部楼层 |阅读模式

毒液:致命保护者/毒液 Venom.2018.1080p.BluRay.x264.DTS-HDC 11.76GB-1.jpg
毒液:致命保护者/毒液 Venom.2018.1080p.BluRay.x264.DTS-HDC 11.76GB-2.jpg

◎译  名 毒液:致命保护者 / 毒液 / 毒魔(港) / 猛毒(台)
◎片  名 Venom
◎年  代 2018
◎产  地 美国 / 中国大陆
◎类  别 行动 / 科幻 / 惊悚
◎语  言 英语 / 汉语普通话
◎上映日期 2018-10-05(美国) / 2018-11-09(中国大陆)
◎IMDb评分 6.9/10 from 149248 users
◎IMDb链接 http://www.imdb.com/title/tt1270797
◎豆瓣评分 7.3/10 from 291683 users
◎豆瓣链接 https://movie.douban.com/subject/3168101/
◎片  长 112分钟
◎导  演 鲁本·弗雷斯彻 Ruben Fleischer
◎编  剧 杰夫·皮克纳 Jeff Pinkner / 斯科特·罗森伯格 Scott Rosenberg / 凯莉·马塞尔 Kelly Marcel / 托德·麦克法兰 Todd McFarlane / 戴维·麦克法兰 David Michelinie
◎主  演 汤姆·哈迪 Tom Hardy
      米歇尔·威廉姆斯 Michelle Williams
      里兹·阿迈德 Riz Ahmed
      斯科特·黑兹 Scott Haze
      瑞德·斯科特 Reid Scott
      珍妮·斯蕾特 Jenny Slate
      梅罗拉·沃特斯 Melora Walters
      伍迪·哈里森 Woody Harrelson
      Peggy Lu
      Malcolm C. Murray
      索佩·阿卢科 Sope Aluko
      韦恩·佩雷 Wayne Pére
      米歇尔·李 Michelle Lee
      库尔特·岳 Kurt Yue
      克里斯·奥哈拉 Chris O'Hara
      埃米里奥·瑞弗拉 Emilio Rivera
      阿里亚当娜·约瑟夫 Ariadne Joseph
      袁之正 Roger Yuan
      朴云龙 Woon Young Park
      麦克·勃兰特 Mac Brandt
      尼克·图恩 Nick Thune
      山姆·麦地那 Sam Medina
      迪塞尔·马德金斯 Diesel Madkins
      简·麦克尼尔 Jane McNeill
      维克托·麦凯 Victor McCay
      马丁·巴特斯·布拉德福德 Martin Bats Bradford
      布兰顿·莫拉莱斯 Brandon Morales
      马修·康威尔 Matthew Cornwell
      斯坦·李 Stan Lee
      韦德·威廉姆斯 Wade Williams
      约瑟夫·阿梅 Joseph Amey
      威廉·W·巴伯 William W. Barbour
      玛塞拉·布拉吉奥 Marcella Bragio
      卡特·伯奇 Carter Burch
      克里斯蒂安·康佛瑞 Christian Convery
      詹姆斯·富尔特斯 James Fuertes
      丹妮拉·加斯基 Daniela Gaskie
      约翰·盖蒂尔 John Gettier
      艾米丽塔·T·冈萨雷斯 Emelita T. Gonzalez
      杰克·汉森 Jake Hanson
      安东尼·B·哈里斯 Anthony B. Harris
      卡茜·亨德利 Cassie Hendry
      罗恩·彼得·琼斯 Ron Cephas Jones
      霍梅洛·洛佩兹 Homero Lopez
      万恩·姆约维奇 Vaughn Myovich


◎标  签 漫威 | 科幻 | 超级豪杰 | 美国 | 2018 | 行动 | 搞笑 | 漫画改编

◎简  介  

  艾迪(汤姆·哈迪 Tom Hardy 饰)是一位深受观众爱好的消息记者,和女友安妮(米歇尔·威廉姆斯 Michelle Williams 饰)相恋多年,相互之间豪情非常要好。安妮是一位律师,接手了生命基金会的案件,在女友的邮箱里,艾迪发现了基金会老板德雷克(里兹·阿迈德 Riz Ahmed 饰)不为人知的奥秘。为此,艾迪不但丢了工作,女友也离他而去。
以后,生命基金会的朵拉博士(珍妮·斯蕾特 Jenny Slate 饰)找到了艾迪,希望艾迪可以帮助她阻止德雷克疯狂的罪行。在生命基金会的尝试室里,艾迪发现了德雷克停止人体尝试的证据,而且在误打误撞当中被外星生命体毒液附身。回抵家后,艾迪和毒液之间构成了共生关系,他们要应对的是德雷克派出的一波又一波杀手。


  1. Video
  2. ID                                       : 1
  3. Format                                   : AVC
  4. Format/Info                              : Advanced Video Codec
  5. Format profile                           : [url=/cdn-cgi/l/email-protection][email protected][/url]
  6. Format settings                          : CABAC / 5 Ref Frames
  7. Format settings, CABAC                   : Yes
  8. Format settings, ReFrames                : 5 frames
  9. Codec ID                                 : V_MPEG4/ISO/AVC
  10. Duration                                 : 1 h 52 min
  11. Bit rate                                 : 13.5 Mb/s
  12. Width                                    : 1 920 pixels
  13. Height                                   : 800 pixels
  14. Display aspect ratio                     : 2.40:1
  15. Frame rate mode                          : Constant
  16. Frame rate                               : 23.976 (24000/1001) FPS
  17. Color space                              : YUV
  18. Chroma subsampling                       : 4:2:0
  19. Bit depth                                : 8 bits
  20. Scan type                                : Progressive
  21. Bits/(Pixel*Frame)                       : 0.367
  22. Stream size                              : 10.6 GiB (90%)
  23. Writing library                          : x264 core 148 r2665kMod a01e339
  24. Encoding settings                        : cabac=1 / ref=5 / deblock=1:-3:-3 / analyse=0x3:0x133 / me=umh / subme=11 / psy=1 / fade_compensate=0.00 / psy_rd=0.85:0.00 / mixed_ref=1 / me_range=48 / chroma_me=1 / trellis=2 / 8x8dct=1 / cqm=0 / deadzone=21,11 / fast_pskip=0 / chroma_qp_offset=-2 / threads=24 / lookahead_threads=4 / sliced_threads=0 / nr=0 / decimate=0 / interlaced=0 / bluray_compat=0 / constrained_intra=0 / fgo=0 / bframes=8 / b_pyramid=2 / b_adapt=2 / b_bias=0 / direct=3 / weightb=1 / open_gop=0 / weightp=2 / keyint=240 / keyint_min=24 / scenecut=40 / intra_refresh=0 / rc=2pass / mbtree=0 / bitrate=13500 / ratetol=1.0 / qcomp=0.70 / qpmin=0 / qpmax=69 / qpstep=4 / cplxblur=20.0 / qblur=0.5 / ip_ratio=1.20 / pb_ratio=1.20 / aq=3:0.80
  25. Language                                 : English
  26. Default                                  : Yes
  27. Forced                                   : No

  28. Audio
  29. ID                                       : 2
  30. Format                                   : DTS
  31. Format/Info                              : Digital Theater Systems
  32. Codec ID                                 : A_DTS
  33. Duration                                 : 1 h 52 min
  34. Bit rate mode                            : Constant
  35. Bit rate                                 : 1 509 kb/s
  36. Channel(s)                               : 6 channels
  37. Channel layout                           : C L R Ls Rs LFE
  38. Sampling rate                            : 48.0 kHz
  39. Frame rate                               : 93.750 FPS (512 SPF)
  40. Bit depth                                : 16 bits
  41. Compression mode                         : Lossy
  42. Stream size                              : 1.18 GiB (10%)
  43. Language                                 : English
  44. Default                                  : Yes
  45. Forced                                   : No

  46. Text #1
  47. ID                                       : 3
  48. Format                                   : UTF-8
  49. Codec ID                                 : S_TEXT/UTF8
  50. Codec ID/Info                            : UTF-8 Plain Text
  51. Duration                                 : 1 h 49 min
  52. Bit rate                                 : 57 b/s
  53. Count of elements                        : 1474
  54. Stream size                              : 45.7 KiB (0%)
  55. Language                                 : English
  56. Default                                  : Yes
  57. Forced                                   : No

  58. Text #2
  59. ID                                       : 4
  60. Format                                   : UTF-8
  61. Codec ID                                 : S_TEXT/UTF8
  62. Codec ID/Info                            : UTF-8 Plain Text
  63. Duration                                 : 1 h 49 min
  64. Bit rate                                 : 68 b/s
  65. Count of elements                        : 1828
  66. Stream size                              : 55.2 KiB (0%)
  67. Title                                    : SDH
  68. Language                                 : English
  69. Default                                  : No
  70. Forced                                   : No

  71. Menu
  72. 00:00:00.000                             : en:00:00:00.000
  73. 00:04:43.200                             : en:00:04:43.200
  74. 00:10:58.074                             : en:00:10:58.074
  75. 00:17:34.929                             : en:00:17:34.929
  76. 00:24:05.486                             : en:00:24:05.486
  77. 00:32:18.812                             : en:00:32:18.812
  78. 00:40:07.447                             : en:00:40:07.447
  79. 00:46:51.976                             : en:00:46:51.976
  80. 00:53:26.203                             : en:00:53:26.203
  81. 01:00:57.070                             : en:01:00:57.070
  82. 01:04:01.796                             : en:01:04:01.796
  83. 01:08:36.446                             : en:01:08:36.446
  84. 01:11:12.852                             : en:01:11:12.852
  85. 01:14:15.743                             : en:01:14:15.743
  86. 01:21:18.749                             : en:01:21:18.749
  87. 01:27:15.021                             : en:01:27:15.021
复制代码

复制代码

毒液:致命保护者/毒液 Venom.2018.1080p.BluRay.x264.DTS-HDC 11.76GB-3.png 毒液:致命保护者/毒液 Venom.2018.1080p.BluRay.x264.DTS-HDC 11.76GB-4.png 毒液:致命保护者/毒液 Venom.2018.1080p.BluRay.x264.DTS-HDC 11.76GB-5.png


本帖隐藏的下载地址需要VIP会员才可阅读,您需要升级才可阅读,点击这里升级VIP

回复

使用道具 举报

级别:普通观众 Lv.2

UID
4852
注册时间
2018-6-30
最后登录
2018-12-14
听众
2
收听
0
主题
0
蓝光币
35 枚
贡献
0 点
发表于 6 天前 | 显示全部楼层

其实我一直觉得楼主的品味不错!呵呵!中国高清电影网太棒了!
回复

使用道具 举报

级别:初级观众 Lv.1

UID
9568
注册时间
2018-11-7
最后登录
2018-12-12
听众
0
收听
0
主题
0
蓝光币
16 枚
贡献
0 点
发表于 4 天前 | 显示全部楼层


其实我一直觉得楼主的品味不错
回复

使用道具 举报

懒得打字嘛,点击右侧快捷回复 【右侧内容,后台自定义】
您需要登录后才可以回帖 登录 | 立即注册

本版积分规则

QQ|Archiver|手机版|小黑屋|中国高清网 |网站地图

GMT+8, 2018-12-14 15:13 , Processed in 0.145767 second(s), 41 queries .

Powered by HDchina X3.4

Copyright 2017-2018©HDchina.All right reserved

返回顶部 联系我们