你所知道的4K资源这里全部都有 4K电影 | 4K视频 | 4K壁纸 | 4K MV 怎么播放4K视频 | 4K电视演示片

教你玩转4K私人与家庭影院存储 NAS组装 | 黑群辉 家庭/影院Nas论坛

4K家庭影院信号源与视频设备知识 4K蓝光高清播放机 - 那个品牌好? 4K投影机论坛 | 4K电视机论坛

手把手教你搭建属于自己的家庭影院 4K家庭影院案例 | 家庭影院音频 4K家庭影院论坛

查看: 563|回复: 14

[科幻片] 毒液:致命守护者/毒液 Venom.2018.1080p.BluRay.x264.DD5.1-MT 9.62GB

[复制链接]

级别:资源管理组

UID
1
注册时间
2017-10-20
最后登录
2018-12-14
听众
0
收听
0
主题
73005
蓝光币
104528 枚
贡献
142813 点
发表于 2018-12-6 09:36:04 | 显示全部楼层 |阅读模式
毒液:致命保护者/毒液 Venom.2018.1080p.BluRay.x264.DD5.1-MT 9.62GB-1.jpg
毒液:致命保护者/毒液 Venom.2018.1080p.BluRay.x264.DD5.1-MT 9.62GB-2.jpg

◎译  名 毒液:致命保护者 / 毒液 / 毒魔(港) / 猛毒(台)
◎片  名 Venom
◎年  代 2018
◎产  地 美国 / 中国大陆
◎类  别 行动 / 科幻 / 惊悚
◎语  言 英语 / 汉语普通话
◎上映日期 2018-10-05(美国) / 2018-11-09(中国大陆)
◎IMDb评分 6.9/10 from 149015 users
◎IMDb链接 http://www.imdb.com/title/tt1270797
◎豆瓣评分 7.3/10 from 289787 users
◎豆瓣链接 https://movie.douban.com/subject/3168101/
◎片  长 112分钟
◎导  演 鲁本·弗雷斯彻 Ruben Fleischer
◎编  剧 杰夫·皮克纳 Jeff Pinkner / 斯科特·罗森伯格 Scott Rosenberg / 凯莉·马塞尔 Kelly Marcel / 托德·麦克法兰 Todd McFarlane / 戴维·麦克法兰 David Michelinie
◎主  演 汤姆·哈迪 Tom Hardy
      米歇尔·威廉姆斯 Michelle Williams
      里兹·阿迈德 Riz Ahmed
      斯科特·黑兹 Scott Haze
      瑞德·斯科特 Reid Scott
      珍妮·斯蕾特 Jenny Slate
      梅罗拉·沃特斯 Melora Walters
      伍迪·哈里森 Woody Harrelson
      Peggy Lu
      Malcolm C. Murray
      索佩·阿卢科 Sope Aluko
      韦恩·佩雷 Wayne Pére
      米歇尔·李 Michelle Lee
      库尔特·岳 Kurt Yue
      克里斯·奥哈拉 Chris O'Hara
      埃米里奥·瑞弗拉 Emilio Rivera
      阿里亚当娜·约瑟夫 Ariadne Joseph
      袁之正 Roger Yuan
      朴云龙 Woon Young Park
      麦克·勃兰特 Mac Brandt
      尼克·图恩 Nick Thune
      山姆·麦地那 Sam Medina
      迪塞尔·马德金斯 Diesel Madkins
      简·麦克尼尔 Jane McNeill
      维克托·麦凯 Victor McCay
      马丁·巴特斯·布拉德福德 Martin Bats Bradford
      布兰顿·莫拉莱斯 Brandon Morales
      马修·康威尔 Matthew Cornwell
      斯坦·李 Stan Lee
      韦德·威廉姆斯 Wade Williams
      约瑟夫·阿梅 Joseph Amey
      威廉·W·巴伯 William W. Barbour
      玛塞拉·布拉吉奥 Marcella Bragio
      卡特·伯奇 Carter Burch
      克里斯蒂安·康佛瑞 Christian Convery
      詹姆斯·富尔特斯 James Fuertes
      丹妮拉·加斯基 Daniela Gaskie
      约翰·盖蒂尔 John Gettier
      艾米丽塔·T·冈萨雷斯 Emelita T. Gonzalez
      杰克·汉森 Jake Hanson
      安东尼·B·哈里斯 Anthony B. Harris
      卡茜·亨德利 Cassie Hendry
      罗恩·彼得·琼斯 Ron Cephas Jones
      霍梅洛·洛佩兹 Homero Lopez
      万恩·姆约维奇 Vaughn Myovich


◎标  签 漫威 | 科幻 | 超级豪杰 | 美国 | 2018 | 行动 | 搞笑 | 漫画改编

◎简  介  

  艾迪(汤姆·哈迪 Tom Hardy 饰)是一位深受观众爱好的消息记者,和女友安妮(米歇尔·威廉姆斯 Michelle Williams 饰)相恋多年,相互之间豪情非常要好。安妮是一位律师,接手了生命基金会的案件,在女友的邮箱里,艾迪发现了基金会老板德雷克(里兹·阿迈德 Riz Ahmed 饰)不为人知的奥秘。为此,艾迪不但丢了工作,女友也离他而去。
以后,生命基金会的朵拉博士(珍妮·斯蕾特 Jenny Slate 饰)找到了艾迪,希望艾迪可以帮助她阻止德雷克疯狂的罪行。在生命基金会的尝试室里,艾迪发现了德雷克停止人体尝试的证据,而且在误打误撞当中被外星生命体毒液附身。回抵家后,艾迪和毒液之间构成了共生关系,他们要应对的是德雷克派出的一波又一波杀手。


  1. Video
  2. ID                                       : 1
  3. Format                                   : AVC
  4. Format/Info                              : Advanced Video Codec
  5. Format profile                           : [url=/cdn-cgi/l/email-protection][email protected][/url]
  6. Format settings                          : CABAC / 5 Ref Frames
  7. Format settings, CABAC                   : Yes
  8. Format settings, ReFrames                : 5 frames
  9. Codec ID                                 : V_MPEG4/ISO/AVC
  10. Duration                                 : 1 h 52 min
  11. Bit rate                                 : 11.6 Mb/s
  12. Width                                    : 1 920 pixels
  13. Height                                   : 800 pixels
  14. Display aspect ratio                     : 2.40:1
  15. Frame rate mode                          : Constant
  16. Frame rate                               : 23.976 (24000/1001) FPS
  17. Color space                              : YUV
  18. Chroma subsampling                       : 4:2:0
  19. Bit depth                                : 8 bits
  20. Scan type                                : Progressive
  21. Bits/(Pixel*Frame)                       : 0.316
  22. Stream size                              : 9.12 GiB (95%)
  23. Writing library                          : x264 core 157 r2935 545de2f
  24. Encoding settings                        : cabac=1 / ref=5 / deblock=1:-3:-3 / analyse=0x3:0x133 / me=umh / subme=10 / psy=1 / psy_rd=1.05:0.00 / mixed_ref=1 / me_range=32 / chroma_me=1 / trellis=2 / 8x8dct=1 / cqm=0 / deadzone=21,11 / fast_pskip=0 / chroma_qp_offset=-2 / threads=12 / lookahead_threads=2 / sliced_threads=0 / nr=0 / decimate=0 / interlaced=0 / bluray_compat=0 / constrained_intra=0 / bframes=8 / b_pyramid=2 / b_adapt=2 / b_bias=0 / direct=3 / weightb=1 / open_gop=0 / weightp=2 / keyint=250 / keyint_min=24 / scenecut=40 / intra_refresh=0 / rc_lookahead=250 / rc=crf / mbtree=0 / crf=15.0 / qcomp=0.60 / qpmin=0 / qpmax=69 / qpstep=4 / vbv_maxrate=62500 / vbv_bufsize=78125 / crf_max=0.0 / nal_hrd=none / filler=0 / ip_ratio=1.30 / pb_ratio=1.20 / aq=3:0.80
  25. Language                                 : English
  26. Default                                  : Yes
  27. Forced                                   : No
  28. Color range                              : Limited
  29. Color primaries                          : BT.709
  30. Matrix coefficients                      : BT.709

  31. Audio
  32. ID                                       : 2
  33. Format                                   : AC-3
  34. Format/Info                              : Audio Coding 3
  35. Commercial name                          : Dolby Digital
  36. Codec ID                                 : A_AC3
  37. Duration                                 : 1 h 52 min
  38. Bit rate mode                            : Constant
  39. Bit rate                                 : 640 kb/s
  40. Channel(s)                               : 6 channels
  41. Channel layout                           : L R C LFE Ls Rs
  42. Sampling rate                            : 48.0 kHz
  43. Frame rate                               : 31.250 FPS (1536 SPF)
  44. Bit depth                                : 16 bits
  45. Compression mode                         : Lossy
  46. Stream size                              : 513 MiB (5%)
  47. Language                                 : English
  48. Service kind                             : Complete Main
  49. Default                                  : Yes
  50. Forced                                   : No

  51. Text
  52. ID                                       : 3
  53. Format                                   : UTF-8
  54. Codec ID                                 : S_TEXT/UTF8
  55. Codec ID/Info                            : UTF-8 Plain Text
  56. Duration                                 : 1 h 34 min
  57. Bit rate                                 : 63 b/s
  58. Count of elements                        : 1399
  59. Stream size                              : 44.0 KiB (0%)
  60. Language                                 : English
  61. Default                                  : Yes
  62. Forced                                   : No

  63. Menu
  64. 00:04:59.299                             : :Chapter 01
  65. 00:09:59.599                             : :Chapter 02
  66. 00:14:59.899                             : :Chapter 03
  67. 00:19:59.198                             : :Chapter 04
  68. 00:25:00.499                             : :Chapter 05
  69. 00:29:59.798                             : :Chapter 06
  70. 00:35:00.098                             : :Chapter 07
  71. 00:39:59.397                             : :Chapter 08
  72. 00:44:59.697                             : :Chapter 09
  73. 00:50:00.998                             : :Chapter 10
  74. 00:55:00.297                             : :Chapter 11
  75. 00:59:59.596                             : :Chapter 12
  76. 01:06:15.972                             : :Chapter 13
  77. 01:14:17.453                             : :Chapter 14
  78. 01:24:35.070                             : :Chapter 15
  79. 01:33:32.607                             : :Chapter 16
  80. 01:40:39.033                             : :Chapter 17
  81. 01:47:17.431                             : :Chapter 18
复制代码

复制代码

毒液:致命保护者/毒液 Venom.2018.1080p.BluRay.x264.DD5.1-MT 9.62GB-3.png 毒液:致命保护者/毒液 Venom.2018.1080p.BluRay.x264.DD5.1-MT 9.62GB-4.png 毒液:致命保护者/毒液 Venom.2018.1080p.BluRay.x264.DD5.1-MT 9.62GB-5.png




本帖隐藏的下载地址需要VIP会员才可阅读,您需要升级才可阅读,点击这里升级VIP

回复

使用道具 举报

级别:普通观众 Lv.2

UID
11421
注册时间
2018-12-4
最后登录
2018-12-14
听众
0
收听
0
主题
0
蓝光币
43 枚
贡献
0 点
发表于 2018-12-6 13:49:12 | 显示全部楼层
先谢楼主分享。
回复

使用道具 举报

级别:初级观众 Lv.1

UID
11499
注册时间
2018-12-5
最后登录
2018-12-11
听众
0
收听
0
主题
0
蓝光币
18 枚
贡献
0 点
QQ
发表于 2018-12-6 22:28:49 | 显示全部楼层

这东西我收了!谢谢楼主!中国高清电影网真好!
回复

使用道具 举报

级别:群众演员 Lv.3

UID
322
注册时间
2018-1-7
最后登录
2018-12-13
听众
1
收听
0
主题
0
蓝光币
34 枚
贡献
0 点
发表于 7 天前 | 显示全部楼层
谢谢楼主!中国高清电影网真好
回复

使用道具 举报

级别:普通观众 Lv.2

UID
7599
注册时间
2018-9-29
最后登录
2018-12-8
听众
1
收听
0
主题
0
蓝光币
14 枚
贡献
0 点
发表于 7 天前 | 显示全部楼层

谢谢楼主分享
回复

使用道具 举报

级别:普通观众 Lv.2

UID
88
注册时间
2017-12-5
最后登录
2018-12-11
听众
1
收听
0
主题
0
蓝光币
26 枚
贡献
0 点
发表于 7 天前 | 显示全部楼层
楼主发贴辛苦了,谢谢楼主分享!我觉得中国高清电影网是注册对了!
回复

使用道具 举报

级别:群众演员 Lv.3

UID
8533
注册时间
2018-10-17
最后登录
2018-12-14
听众
2
收听
0
主题
0
蓝光币
177 枚
贡献
0 点
发表于 7 天前 | 显示全部楼层
终于有了,谢谢
回复

使用道具 举报

级别:普通观众 Lv.2

UID
7599
注册时间
2018-9-29
最后登录
2018-12-8
听众
1
收听
0
主题
0
蓝光币
14 枚
贡献
0 点
发表于 6 天前 | 显示全部楼层

谢谢楼主分享
回复

使用道具 举报

级别:初级观众 Lv.1

UID
9568
注册时间
2018-11-7
最后登录
2018-12-12
听众
0
收听
0
主题
0
蓝光币
16 枚
贡献
0 点
发表于 6 天前 | 显示全部楼层

感谢楼主分享精彩资源!!!
回复

使用道具 举报

级别:初级观众 Lv.1

UID
11744
注册时间
2018-12-9
最后登录
2018-12-9
听众
0
收听
0
主题
0
蓝光币
3 枚
贡献
0 点
发表于 5 天前 | 显示全部楼层

楼主太厉害了!楼主,电影应该很好看我觉得中国高清电影网真是个好地方!
回复

使用道具 举报

懒得打字嘛,点击右侧快捷回复 【右侧内容,后台自定义】
您需要登录后才可以回帖 登录 | 立即注册

本版积分规则

QQ|Archiver|手机版|小黑屋|中国高清网 |网站地图

GMT+8, 2018-12-14 16:59 , Processed in 0.145617 second(s), 41 queries .

Powered by HDchina X3.4

Copyright 2017-2018©HDchina.All right reserved

返回顶部 联系我们