你所知道的4K资源这里全部都有 4K电影 | 4K视频 | 4K壁纸 | 4K MV 怎么播放4K视频 | 4K电视演示片

教你玩转4K私人与家庭影院存储 NAS组装 | 黑群辉 家庭/影院Nas论坛

4K家庭影院信号源与视频设备知识 4K蓝光高清播放机 - 那个品牌好? 4K投影机论坛 | 4K电视机论坛

手把手教你搭建属于自己的家庭影院 4K家庭影院案例 | 家庭影院音频 4K家庭影院论坛

查看: 111|回复: 1

[喜剧片] 蓝蜥蜴俱乐部 Blue.Iguana.2018.1080p.BluRay.REMUX.AVC.TrueHD.5.1-FGT 27.27GB

[复制链接]

 成长值: 710

级别:资源管理组

注册时间
2017-10-20
最后登录
2019-3-22
听众
0
收听
0
主题
76497
蓝光币
134743 枚
贡献
146306 点
发表于 2018-12-5 14:54:50 | 显示全部楼层 |阅读模式

蓝蜥蜴俱乐部 Blue.Iguana.2018.1080p.BluRay.REMUX.AVC.TrueHD.5.1-FGT 27.27GB-1.jpg
蓝蜥蜴俱乐部 Blue.Iguana.2018.1080p.BluRay.REMUX.AVC.TrueHD.5.1-FGT 27.27GB-2.jpg

◎译  名 蓝蜥蜴俱乐部
◎片  名 Blue Iguana
◎年  代 2018
◎产  地 英国
◎类  别 笑剧
◎语  言 英语
◎上映日期 2018-08-24(美国)
◎IMDb评分 5.3/10 from 602 users
◎IMDb链接 http://www.imdb.com/title/tt2316479
◎豆瓣评分 0/10 from 0 users
◎豆瓣链接 https://movie.douban.com/subject/26857664/
◎片  长 105分钟
◎导  演 哈迪 ·哈杰格 Hadi Hajaig
◎编  剧 哈迪 ·哈杰格 Hadi Hajaig
◎主  演 山姆·洛克威尔 Sam Rockwell
      本·施瓦茨 Ben Schwartz
      阿曼达·多诺休 Amanda Donohoe
      西蒙·卡洛 Simon Callow
      菲比·福克斯 Phoebe Fox
      阿尔·韦弗 Al Weaver
      弗兰西斯·巴贝 Frances Barber
      彼得·费迪南多 Peter Ferdinando
      丹尼尔·厄根 Daniel Eghan
      保罗·陈 Paul Chan
      李·尼古拉斯·哈里斯 Lee Nicholas Harris
      彼得·多卡普 Peter Polycarpou
      Jenny Bede
      Andre Flynn
      Vic Waghorn


◎标  签 SamRockwell | 2018 | 英国 | UK | 电影 | 未上映 | Thriller | 2019

◎简  介  

  报告前犯人Eddie和Paul在假释期为一家纽约餐厅打工,他们被英国律师Katherine Rookwood招募,前往伦敦窃取一颗被称为“蓝蜥蜴”的宝石。两人此前处事时凡是轻松脱身,而此次一个精神变态的小范围犯罪团伙的头子挡了他们的路,发生一系列意想不到的事。


  1. Video
  2. ID                                       : 1
  3. Format                                   : AVC
  4. Format/Info                              : Advanced Video Codec
  5. Format profile                           : [url=/cdn-cgi/l/email-protection][email protected][/url]
  6. Format settings                          : CABAC / 4 Ref Frames
  7. Format settings, CABAC                   : Yes
  8. Format settings, ReFrames                : 4 frames
  9. Codec ID                                 : V_MPEG4/ISO/AVC
  10. Duration                                 : 1 h 41 min
  11. Bit rate mode                            : Variable
  12. Bit rate                                 : 31.2 Mb/s
  13. Maximum bit rate                         : 35.0 Mb/s
  14. Width                                    : 1 920 pixels
  15. Height                                   : 1 080 pixels
  16. Display aspect ratio                     : 16:9
  17. Frame rate mode                          : Constant
  18. Frame rate                               : 23.976 (24000/1001) FPS
  19. Standard                                 : NTSC
  20. Color space                              : YUV
  21. Chroma subsampling                       : 4:2:0
  22. Bit depth                                : 8 bits
  23. Scan type                                : Progressive
  24. Bits/(Pixel*Frame)                       : 0.627
  25. Stream size                              : 22.0 GiB (81%)
  26. Title                                    : Blue.Iguana.2018.1080p.BluRay.REMUX.AVC.TrueHD.5.1-FGT
  27. Language                                 : English
  28. Default                                  : No
  29. Forced                                   : No
  30. Color range                              : Limited
  31. Color primaries                          : BT.709
  32. Transfer characteristics                 : BT.709
  33. Matrix coefficients                      : BT.709

  34. Audio #1
  35. ID                                       : 2
  36. Format                                   : MLP FBA
  37. Format/Info                              : Meridian Lossless Packing FBA
  38. Commercial name                          : Dolby TrueHD
  39. Codec ID                                 : A_TRUEHD
  40. Duration                                 : 1 h 41 min
  41. Bit rate mode                            : Variable
  42. Bit rate                                 : 3 917 kb/s
  43. Maximum bit rate                         : 5 229 kb/s
  44. Channel(s)                               : 6 channels
  45. Channel layout                           : L R C LFE Ls Rs
  46. Sampling rate                            : 48.0 kHz
  47. Frame rate                               : 1 200.000 FPS (40 SPF)
  48. Compression mode                         : Lossless
  49. Stream size                              : 2.77 GiB (10%)
  50. Title                                    : Blue.Iguana.2018.1080p.BluRay.REMUX.AVC.TrueHD.5.1-FGT
  51. Language                                 : English
  52. Default                                  : Yes
  53. Forced                                   : No

  54. Audio #2
  55. ID                                       : 3
  56. Format                                   : AC-3
  57. Format/Info                              : Audio Coding 3
  58. Commercial name                          : Dolby Digital
  59. Codec ID                                 : A_AC3
  60. Duration                                 : 1 h 41 min
  61. Bit rate mode                            : Constant
  62. Bit rate                                 : 640 kb/s
  63. Channel(s)                               : 6 channels
  64. Channel layout                           : L R C LFE Ls Rs
  65. Sampling rate                            : 48.0 kHz
  66. Frame rate                               : 31.250 FPS (1536 SPF)
  67. Bit depth                                : 16 bits
  68. Compression mode                         : Lossy
  69. Stream size                              : 463 MiB (2%)
  70. Title                                    : Blue.Iguana.2018.1080p.BluRay.REMUX.AVC.TrueHD.5.1-FGT
  71. Language                                 : English
  72. Service kind                             : Complete Main
  73. Default                                  : No
  74. Forced                                   : No

  75. Audio #3
  76. ID                                       : 4
  77. Format                                   : MLP FBA
  78. Format/Info                              : Meridian Lossless Packing FBA
  79. Commercial name                          : Dolby TrueHD
  80. Codec ID                                 : A_TRUEHD
  81. Duration                                 : 1 h 41 min
  82. Bit rate mode                            : Variable
  83. Bit rate                                 : 1 610 kb/s
  84. Maximum bit rate                         : 2 985 kb/s
  85. Channel(s)                               : 6 channels
  86. Channel layout                           : L R C LFE Ls Rs
  87. Sampling rate                            : 48.0 kHz
  88. Frame rate                               : 1 200.000 FPS (40 SPF)
  89. Compression mode                         : Lossless
  90. Stream size                              : 1.14 GiB (4%)
  91. Title                                    : Blue.Iguana.2018.1080p.BluRay.REMUX.AVC.TrueHD.5.1-FGT
  92. Language                                 : French
  93. Default                                  : No
  94. Forced                                   : No

  95. Audio #4
  96. ID                                       : 5
  97. Format                                   : AC-3
  98. Format/Info                              : Audio Coding 3
  99. Commercial name                          : Dolby Digital
  100. Codec ID                                 : A_AC3
  101. Duration                                 : 1 h 41 min
  102. Bit rate mode                            : Constant
  103. Bit rate                                 : 640 kb/s
  104. Channel(s)                               : 6 channels
  105. Channel layout                           : L R C LFE Ls Rs
  106. Sampling rate                            : 48.0 kHz
  107. Frame rate                               : 31.250 FPS (1536 SPF)
  108. Bit depth                                : 16 bits
  109. Compression mode                         : Lossy
  110. Stream size                              : 463 MiB (2%)
  111. Title                                    : Blue.Iguana.2018.1080p.BluRay.REMUX.AVC.TrueHD.5.1-FGT
  112. Language                                 : French
  113. Service kind                             : Complete Main
  114. Default                                  : No
  115. Forced                                   : No

  116. Audio #5
  117. ID                                       : 6
  118. Format                                   : AC-3
  119. Format/Info                              : Audio Coding 3
  120. Commercial name                          : Dolby Digital
  121. Codec ID                                 : A_AC3
  122. Duration                                 : 1 h 41 min
  123. Bit rate mode                            : Constant
  124. Bit rate                                 : 448 kb/s
  125. Channel(s)                               : 2 channels
  126. Channel layout                           : L R
  127. Sampling rate                            : 48.0 kHz
  128. Frame rate                               : 31.250 FPS (1536 SPF)
  129. Bit depth                                : 16 bits
  130. Compression mode                         : Lossy
  131. Stream size                              : 324 MiB (1%)
  132. Title                                    : Blue.Iguana.2018.1080p.BluRay.REMUX.AVC.TrueHD.5.1-FGT
  133. Language                                 : English
  134. Service kind                             : Complete Main
  135. Default                                  : No
  136. Forced                                   : No

  137. Text #1
  138. ID                                       : 7
  139. Format                                   : PGS
  140. Muxing mode                              : zlib
  141. Codec ID                                 : S_HDMV/PGS
  142. Codec ID/Info                            : Picture based subtitle format used on BDs/HD-DVDs
  143. Duration                                 : 1 h 37 min
  144. Bit rate                                 : 32.2 kb/s
  145. Count of elements                        : 3526
  146. Stream size                              : 22.5 MiB (0%)
  147. Title                                    : English-PGS
  148. Language                                 : English
  149. Default                                  : Yes
  150. Forced                                   : No

  151. Text #2
  152. ID                                       : 8
  153. Format                                   : PGS
  154. Muxing mode                              : zlib
  155. Codec ID                                 : S_HDMV/PGS
  156. Codec ID/Info                            : Picture based subtitle format used on BDs/HD-DVDs
  157. Duration                                 : 1 h 40 min
  158. Bit rate                                 : 34.4 kb/s
  159. Count of elements                        : 3544
  160. Stream size                              : 24.7 MiB (0%)
  161. Title                                    : French-PGS
  162. Language                                 : French
  163. Default                                  : No
  164. Forced                                   : No

  165. Text #3
  166. ID                                       : 9
  167. Format                                   : PGS
  168. Muxing mode                              : zlib
  169. Codec ID                                 : S_HDMV/PGS
  170. Codec ID/Info                            : Picture based subtitle format used on BDs/HD-DVDs
  171. Duration                                 : 1 h 37 min
  172. Bit rate                                 : 269 b/s
  173. Count of elements                        : 22
  174. Stream size                              : 193 KiB (0%)
  175. Title                                    : French-FORCED-PGS
  176. Language                                 : French
  177. Default                                  : No
  178. Forced                                   : No

  179. Menu
  180. 00:00:00.000                             : en:Chapter 01
  181. 00:14:04.802                             : en:Chapter 02
  182. 00:28:22.409                             : en:Chapter 03
  183. 00:42:19.703                             : en:Chapter 04
  184. 00:55:31.286                             : en:Chapter 05
  185. 01:08:18.302                             : en:Chapter 06
  186. 01:21:13.243                             : en:Chapter 07
  187. 01:38:31.697                             : en:Chapter 08
复制代码

复制代码

蓝蜥蜴俱乐部 Blue.Iguana.2018.1080p.BluRay.REMUX.AVC.TrueHD.5.1-FGT 27.27GB-3.png 蓝蜥蜴俱乐部 Blue.Iguana.2018.1080p.BluRay.REMUX.AVC.TrueHD.5.1-FGT 27.27GB-4.png 蓝蜥蜴俱乐部 Blue.Iguana.2018.1080p.BluRay.REMUX.AVC.TrueHD.5.1-FGT 27.27GB-5.png





回复

使用道具 举报

级别:荣升主角 Lv.5

注册时间
2018-5-27
最后登录
2019-3-21
听众
4
收听
0
主题
0
蓝光币
17 枚
贡献
0 点
发表于 2018-12-7 18:23:43 | 显示全部楼层
感谢分享!
回复

使用道具 举报

懒得打字嘛,点击右侧快捷回复 【右侧内容,后台自定义】
您需要登录后才可以回帖 登录 | 立即注册

本版积分规则

QQ|Archiver|手机版|小黑屋|中国高清网 |网站地图

GMT+8, 2019-3-22 10:38 , Processed in 0.189346 second(s), 41 queries .

Powered by HDchina X3.4

Copyright 2017-2018©HDchina.All right reserved

返回顶部 联系我们