你所知道的4K资源这里全部都有 4K电影 | 4K视频 | 4K壁纸 | 4K MV 怎么播放4K视频 | 4K电视演示片

教你玩转4K私人与家庭影院存储 NAS组装 | 黑群辉 家庭/影院Nas论坛

4K家庭影院信号源与视频设备知识 4K蓝光高清播放机 - 那个品牌好? 4K投影机论坛 | 4K电视机论坛

手把手教你搭建属于自己的家庭影院 4K家庭影院案例 | 家庭影院音频 4K家庭影院论坛

查看: 170|回复: 1

[科幻片] 第一缕曙光 At.First.Light.2018.1080p.BluRay.REMUX.AVC.DTS-HD.MA.5.1-FGT 20.83GB

[复制链接]

 成长值: 1670

级别:资源管理组

注册时间
2017-10-20
最后登录
2019-6-25
听众
0
收听
0
主题
78745
蓝光币
28950 枚
贡献
3070 点
发表于 2018-12-5 14:53:48 | 显示全部楼层 |阅读模式

第一缕曙光 At.First.Light.2018.1080p.BluRay.REMUX.AVC.DTS-HD.MA.5.1-FGT 20.83GB-1.jpg
第一缕曙光 At.First.Light.2018.1080p.BluRay.REMUX.AVC.DTS-HD.MA.5.1-FGT 20.83GB-2.jpg

◎译  名 第一缕曙光 / At First Light / Mysterious Lights
◎片  名 First Light
◎年  代 2018
◎产  地 加拿大
◎类  别 科幻 / 惊悚
◎语  言 英语
◎上映日期 2018-03-10(西南偏南电影节)
◎IMDb评分 5.4/10 from 815 users
◎IMDb链接 http://www.imdb.com/title/tt5994166
◎豆瓣评分 5.5/10 from 116 users
◎豆瓣链接 https://movie.douban.com/subject/27124961/
◎片  长 91分钟
◎导  演 杰森·斯通 Jason Stone
◎编  剧 杰森·斯通 Jason Stone / Andrew C. Erin
◎主  演 斯戴芬妮·斯考特 Stefanie Scott
      萨伊德·塔格马奥 Sa?d Taghmaoui
      凯特·伯顿 Kate Burton
      克莉丝汀·布丝 Kristin Booth
      西奥多·佩尔兰 Théodore Pellerin
      肖恩迪瓦恩 Sean Devine
      Cesar Lazcano
      B.J. Parker
      王昊玥 Vivian Wang


◎标  签 科幻 | 美国 | 2018 | 外星人 | 电影 | 惊悚 | 剧情 | 温情

◎简  介  

  在一个集会上,“肖恩”重逢了他青梅竹马的前女友“阿莉克丝”,之前两人由于肖恩妈妈的离去而逐步冷淡。阿莉克丝的新男友汤姆约请她去一个危险的水库泅水,水流忽然变得湍急冲散了他们,随即不远处的电塔发出了激烈的蓝绿光击晕了水中的阿莉克丝;当她再次醒来的时辰,她落空了记忆并发现自己具有了强大的磁场超才能,她凭仗身上肖恩写下的电话找到了他。而此时一个奥秘的构造正急切地寻觅着阿莉克丝,希望从她身上找到她受电击后存活下来的答案。肖恩伴随阿莉克丝流亡的进程中,他们逐步发现了关于她的超才能和有关未知生物尝试的奥秘...


  1. Video
  2. ID                                       : 1
  3. Format                                   : AVC
  4. Format/Info                              : Advanced Video Codec
  5. Format profile                           : [url=/cdn-cgi/l/email-protection][email protected][/url]
  6. Format settings                          : CABAC / 4 Ref Frames
  7. Format settings, CABAC                   : Yes
  8. Format settings, ReFrames                : 4 frames
  9. Codec ID                                 : V_MPEG4/ISO/AVC
  10. Duration                                 : 1 h 30 min
  11. Bit rate mode                            : Constant
  12. Bit rate                                 : 28.0 Mb/s
  13. Nominal bit rate                         : 30.0 Mb/s
  14. Width                                    : 1 920 pixels
  15. Height                                   : 1 080 pixels
  16. Display aspect ratio                     : 16:9
  17. Frame rate mode                          : Constant
  18. Frame rate                               : 23.976 (24000/1001) FPS
  19. Color space                              : YUV
  20. Chroma subsampling                       : 4:2:0
  21. Bit depth                                : 8 bits
  22. Scan type                                : Progressive
  23. Bits/(Pixel*Frame)                       : 0.563
  24. Stream size                              : 17.8 GiB (85%)
  25. Title                                    : At.First.Light.2018.1080p.BluRay.REMUX.AVC.DTS-HD.MA.5.1-FGT
  26. Language                                 : English
  27. Default                                  : No
  28. Forced                                   : No

  29. Audio #1
  30. ID                                       : 2
  31. Format                                   : DTS XLL
  32. Format/Info                              : Digital Theater Systems
  33. Commercial name                          : DTS-HD Master Audio
  34. Codec ID                                 : A_DTS
  35. Duration                                 : 1 h 30 min
  36. Bit rate mode                            : Variable
  37. Bit rate                                 : 3 312 kb/s
  38. Channel(s)                               : 6 channels
  39. Channel layout                           : C L R Ls Rs LFE
  40. Sampling rate                            : 48.0 kHz
  41. Frame rate                               : 93.750 FPS (512 SPF)
  42. Bit depth                                : 24 bits
  43. Compression mode                         : Lossless
  44. Stream size                              : 2.10 GiB (10%)
  45. Title                                    : At.First.Light.2018.1080p.BluRay.REMUX.AVC.DTS-HD.MA.5.1-FGT
  46. Language                                 : English
  47. Default                                  : Yes
  48. Forced                                   : No

  49. Audio #2
  50. ID                                       : 3
  51. Format                                   : DTS
  52. Format/Info                              : Digital Theater Systems
  53. Codec ID                                 : A_DTS
  54. Duration                                 : 1 h 30 min
  55. Bit rate mode                            : Constant
  56. Bit rate                                 : 1 509 kb/s
  57. Channel(s)                               : 6 channels
  58. Channel layout                           : C L R Ls Rs LFE
  59. Sampling rate                            : 48.0 kHz
  60. Frame rate                               : 93.750 FPS (512 SPF)
  61. Bit depth                                : 24 bits
  62. Compression mode                         : Lossy
  63. Stream size                              : 980 MiB (5%)
  64. Title                                    : At.First.Light.2018.1080p.BluRay.REMUX.AVC.DTS-HD.MA.5.1-FGT
  65. Language                                 : English
  66. Default                                  : No
  67. Forced                                   : No

  68. Text
  69. ID                                       : 4
  70. Format                                   : PGS
  71. Muxing mode                              : zlib
  72. Codec ID                                 : S_HDMV/PGS
  73. Codec ID/Info                            : Picture based subtitle format used on BDs/HD-DVDs
  74. Duration                                 : 1 h 26 min
  75. Bit rate                                 : 29.8 kb/s
  76. Count of elements                        : 1462
  77. Stream size                              : 18.5 MiB (0%)
  78. Title                                    : English-PGS
  79. Language                                 : English
  80. Default                                  : Yes
  81. Forced                                   : No

  82. Menu
  83. 00:00:00.000                             : en:Chapter 01
  84. 00:10:12.153                             : en:Chapter 02
  85. 00:19:51.398                             : en:Chapter 03
  86. 00:29:01.573                             : en:Chapter 04
  87. 00:40:09.031                             : en:Chapter 05
  88. 00:50:31.153                             : en:Chapter 06
  89. 00:59:09.170                             : en:Chapter 07
  90. 01:10:20.090                             : en:Chapter 08
  91. 01:20:08.386                             : en:Chapter 09
  92. 01:30:45.606                             : en:Chapter 10
复制代码

复制代码

第一缕曙光 At.First.Light.2018.1080p.BluRay.REMUX.AVC.DTS-HD.MA.5.1-FGT 20.83GB-3.png 第一缕曙光 At.First.Light.2018.1080p.BluRay.REMUX.AVC.DTS-HD.MA.5.1-FGT 20.83GB-4.png 第一缕曙光 At.First.Light.2018.1080p.BluRay.REMUX.AVC.DTS-HD.MA.5.1-FGT 20.83GB-5.png



回复

使用道具 举报

级别:荣升主角 Lv.5

注册时间
2018-5-27
最后登录
2019-6-24
听众
10
收听
0
主题
0
蓝光币
135 枚
贡献
0 点
发表于 2018-12-7 18:22:02 | 显示全部楼层
感谢分享!
回复

使用道具 举报

*滑动验证:
懒得打字嘛,点击右侧快捷回复 【右侧内容,后台自定义】
您需要登录后才可以回帖 登录 | 立即注册

本版积分规则

QQ|Archiver|手机版|小黑屋| 中国高清网 |网站地图

GMT+8, 2019-6-25 02:23 , Processed in 0.172172 second(s), 46 queries .

Powered by HDchina X3.4

Copyright 2017-2019©HDchina.All right reserved

返回顶部 联系我们