你所知道的4K资源这里全部都有 4K电影 | 4K视频 | 4K壁纸 | 4K MV 怎么播放4K视频 | 4K电视演示片

教你玩转4K私人与家庭影院存储 NAS组装 | 黑群辉 家庭/影院Nas论坛

4K家庭影院信号源与视频设备知识 4K蓝光高清播放机 - 那个品牌好? 4K投影机论坛 | 4K电视机论坛

手把手教你搭建属于自己的家庭影院 4K家庭影院案例 | 家庭影院音频 4K家庭影院论坛

查看: 54|回复: 0

[科幻片] 地心记 At.the.Earths.Core.1976.1080p.BluRay.REMUX.AVC.DTS-HD.MA.2.0-FGT 24.24GB

[复制链接]

 成长值: 130

级别:资源管理组

UID
1
注册时间
2017-10-20
最后登录
2019-1-22
听众
0
收听
0
主题
73996
蓝光币
116842 枚
贡献
143805 点
发表于 2018-11-26 22:48:04 | 显示全部楼层 |阅读模式

地心记 At.the.Earths.Core.1976.1080p.BluRay.REMUX.AVC.DTS-HD.MA.2.0-FGT 24.24GB-1.jpg
◎译  名 地心记
◎片  名 地心记 At the Earth's Core
◎年  代 1976
◎国  家 英国 / 美国
◎类  别 科幻 / 奇异 / 冒险
◎语  言 英语
◎上映日期 1976-08-07
◎IMDb评分  5.2/10 from 3,600 users
◎IMDb链接  http://www.imdb.com/title/tt0074157/
◎豆瓣评分 今朝无人评价
◎豆瓣链接 https://movie.douban.com/subject/2139012/
◎片  长 89 分钟
◎导  演 凯文·康纳
◎主  演 彼得·库欣
      道格·麦克洛
      卡罗琳·莫罗
      Cy Grant
      Godfrey James
      基思·巴伦
      Robert Gillespie

◎简  介 

  为了找寻失落的叔叔,年轻人自己设想了地心探险船,却被人剽窃,成果只能接管究竟,由于贩子答应让他带队去寻觅失落的文化。 但是贩子手里有一块奥秘碎片,假如他找到其他碎片便可以具有强大的气力。另一部分传闻在地心,在那边也有一个天下,因而他援助一些科学家去地心做科学研讨,实在是为了实现他的野心,科学家们乘坐年轻人发现的有大钻头的飞船到了地心,在那边他们发现有原始人,经过他们的壁画晓得他们的祖先是从地上顺着火山口进到地心的,他们还结交了红色的人形怪物并成为朋友。但是在这里还有一个身上插了很多导管,管子里流淌着绿色液体的邪恶统治者,全部地心天下由他控制....


  1. Video
  2. ID                                       : 1
  3. Format                                   : AVC
  4. Format/Info                              : Advanced Video Codec
  5. Format profile                           : [url=/cdn-cgi/l/email-protection][email protected][/url]
  6. Format settings                          : CABAC / 3 Ref Frames
  7. Format settings, CABAC                   : Yes
  8. Format settings, ReFrames                : 3 frames
  9. Codec ID                                 : V_MPEG4/ISO/AVC
  10. Duration                                 : 1 h 30 min
  11. Bit rate mode                            : Variable
  12. Bit rate                                 : 35.0 Mb/s
  13. Maximum bit rate                         : 38.0 Mb/s
  14. Width                                    : 1 920 pixels
  15. Height                                   : 1 080 pixels
  16. Display aspect ratio                     : 16:9
  17. Frame rate mode                          : Constant
  18. Frame rate                               : 23.976 (24000/1001) FPS
  19. Color space                              : YUV
  20. Chroma subsampling                       : 4:2:0
  21. Bit depth                                : 8 bits
  22. Scan type                                : Progressive
  23. Bits/(Pixel*Frame)                       : 0.704
  24. Stream size                              : 22.1 GiB (91%)
  25. Title                                    : At.the.Earths.Core.1976.1080p.BluRay.REMUX.AVC.DTS-HD.MA.2.0-FGT
  26. Language                                 : English
  27. Default                                  : No
  28. Forced                                   : No
  29. Color range                              : Limited
  30. Color primaries                          : BT.709
  31. Transfer characteristics                 : BT.709
  32. Matrix coefficients                      : BT.709

  33. Audio #1
  34. ID                                       : 2
  35. Format                                   : DTS XLL
  36. Format/Info                              : Digital Theater Systems
  37. Commercial name                          : DTS-HD Master Audio
  38. Codec ID                                 : A_DTS
  39. Duration                                 : 1 h 30 min
  40. Bit rate mode                            : Variable
  41. Bit rate                                 : 1 619 kb/s
  42. Channel(s)                               : 2 channels
  43. Channel layout                           : L R
  44. Sampling rate                            : 48.0 kHz
  45. Frame rate                               : 93.750 FPS (512 SPF)
  46. Bit depth                                : 16 bits
  47. Compression mode                         : Lossless
  48. Stream size                              : 1.02 GiB (4%)
  49. Title                                    : At.the.Earths.Core.1976.1080p.BluRay.REMUX.AVC.DTS-HD.MA.2.0-FGT
  50. Language                                 : English
  51. Default                                  : Yes
  52. Forced                                   : No

  53. Audio #2
  54. ID                                       : 3
  55. Format                                   : DTS
  56. Format/Info                              : Digital Theater Systems
  57. Codec ID                                 : A_DTS
  58. Duration                                 : 1 h 30 min
  59. Bit rate mode                            : Constant
  60. Bit rate                                 : 1 509 kb/s
  61. Channel(s)                               : 2 channels
  62. Channel layout                           : L R
  63. Sampling rate                            : 48.0 kHz
  64. Frame rate                               : 93.750 FPS (512 SPF)
  65. Bit depth                                : 16 bits
  66. Compression mode                         : Lossy
  67. Stream size                              : 977 MiB (4%)
  68. Title                                    : At.the.Earths.Core.1976.1080p.BluRay.REMUX.AVC.DTS-HD.MA.2.0-FGT
  69. Language                                 : English
  70. Default                                  : No
  71. Forced                                   : No

  72. Audio #3
  73. ID                                       : 4
  74. Format                                   : AC-3
  75. Format/Info                              : Audio Coding 3
  76. Commercial name                          : Dolby Digital
  77. Codec ID                                 : A_AC3
  78. Duration                                 : 1 h 30 min
  79. Bit rate mode                            : Constant
  80. Bit rate                                 : 224 kb/s
  81. Channel(s)                               : 2 channels
  82. Channel layout                           : L R
  83. Sampling rate                            : 48.0 kHz
  84. Frame rate                               : 31.250 FPS (1536 SPF)
  85. Bit depth                                : 16 bits
  86. Compression mode                         : Lossy
  87. Stream size                              : 145 MiB (1%)
  88. Title                                    : At.the.Earths.Core.1976.1080p.BluRay.REMUX.AVC.DTS-HD.MA.2.0-FGT
  89. Language                                 : English
  90. Service kind                             : Complete Main
  91. Default                                  : No
  92. Forced                                   : No

  93. Text
  94. ID                                       : 5
  95. Format                                   : PGS
  96. Muxing mode                              : zlib
  97. Codec ID                                 : S_HDMV/PGS
  98. Codec ID/Info                            : Picture based subtitle format used on BDs/HD-DVDs
  99. Duration                                 : 1 h 26 min
  100. Bit rate                                 : 15.2 kb/s
  101. Count of elements                        : 1193
  102. Stream size                              : 9.37 MiB (0%)
  103. Title                                    : English-PGS
  104. Language                                 : English
  105. Default                                  : Yes
  106. Forced                                   : No

  107. Menu
  108. 00:00:00.000                             : en:Chapter 01
  109. 00:03:33.796                             : en:Chapter 02
  110. 00:07:15.810                             : en:Chapter 03
  111. 00:16:36.578                             : en:Chapter 04
  112. 00:23:48.802                             : en:Chapter 05
  113. 00:35:55.528                             : en:Chapter 06
  114. 00:40:36.475                             : en:Chapter 07
  115. 00:54:10.997                             : en:Chapter 08
  116. 01:02:00.883                             : en:Chapter 09
  117. 01:11:27.616                             : en:Chapter 10
  118. 01:17:19.343                             : en:Chapter 11
  119. 01:25:47.809                             : en:Chapter 12
复制代码

复制代码

地心记 At.the.Earths.Core.1976.1080p.BluRay.REMUX.AVC.DTS-HD.MA.2.0-FGT 24.24GB-2.png 地心记 At.the.Earths.Core.1976.1080p.BluRay.REMUX.AVC.DTS-HD.MA.2.0-FGT 24.24GB-3.png 地心记 At.the.Earths.Core.1976.1080p.BluRay.REMUX.AVC.DTS-HD.MA.2.0-FGT 24.24GB-4.png





回复

使用道具 举报

懒得打字嘛,点击右侧快捷回复 【右侧内容,后台自定义】
您需要登录后才可以回帖 登录 | 立即注册

本版积分规则

QQ|Archiver|手机版|小黑屋|中国高清网 |网站地图

GMT+8, 2019-1-23 00:55 , Processed in 0.163098 second(s), 40 queries .

Powered by HDchina X3.4

Copyright 2017-2018©HDchina.All right reserved

返回顶部 联系我们