你所知道的4K资源这里全部都有 4K电影 | 4K视频 | 4K壁纸 | 4K MV 怎么播放4K视频 | 4K电视演示片

教你玩转4K私人与家庭影院存储 NAS组装 | 黑群辉 家庭/影院Nas论坛

4K家庭影院信号源与视频设备知识 4K蓝光高清播放机 - 那个品牌好? 4K投影机论坛 | 4K电视机论坛

手把手教你搭建属于自己的家庭影院 4K家庭影院案例 | 家庭影院音频 4K家庭影院论坛

查看: 150|回复: 0

[喜剧片] 二八佳人花公子续集/阔少爷续集 Arthur.2.On.the.Rocks.1988.1080p.BluRay.REMUX.AVC.DTS-HD.MA.2.0-FGT 17.54GB

[复制链接]

 成长值: 1600

级别:资源管理组

注册时间
2017-10-20
最后登录
2019-6-18
听众
0
收听
0
主题
78692
蓝光币
26992 枚
贡献
3017 点
发表于 2018-11-26 22:43:11 | 显示全部楼层 |阅读模式

妙龄少女花令郎续集/阔少爷续集 Arthur.2.On.the.Rocks.1988.1080p.BluRay.REMUX.AVC.DTS-HD.MA.2.0-FGT 17.54GB-1.jpg
◎译  名 妙龄少女花令郎续集 / 阔少爷续集 / 亚瑟续集
◎片  名 妙龄少女花令郎续集 Arthur 2: On the Rocks
◎年  代 1988
◎国  家 美国
◎类  别 笑剧 / 恋爱
◎语  言 英语
◎上映日期 1988-07-08
◎IMDb评分  4.4/10 from 5,514 users
◎IMDb链接  http://www.imdb.com/title/tt0094678/
◎豆瓣评分 今朝无人评价
◎豆瓣链接 https://movie.douban.com/subject/1294089/
◎片  长 113 分钟
◎导  演 巴德 约金 (Bud Yorkin)
◎主  演 Dudley Moore
      Liza Minnelli
      John Gielgud
      Geraldine Fitzgerald
      Stephen Elliott
      Paul Benedict
      Cynthia Sikes
      Kathy Bates

◎简  介 

  亚瑟与苏珊因门当户对而订婚,婚前亚瑟因自觉分歧而毁约,并娶琳达为妻,但是苏珊始终对亚瑟记忆犹新,苏珊之父心生一计,以高价收买亚瑟家属产业,逼亚瑟四周流浪,并与琳达仳离娶苏珊,亚瑟因与琳达豪情深厚不愿分手,而宁可过贫苦的生活。亚瑟遇上苏珊父亲的仇人,协力收集证据欲加报复,但因法令时效已过,只好作罢。此时苏珊已大白亚瑟真正爱还是琳达而放弃,并劝其父归还亚瑟的财富,此时琳达已怀身孕,重返故里,非常温馨……


  1. Video
  2. ID                                       : 1
  3. Format                                   : AVC
  4. Format/Info                              : Advanced Video Codec
  5. Format profile                           : [url=/cdn-cgi/l/email-protection][email protected][/url]
  6. Format settings                          : CABAC / 2 Ref Frames
  7. Format settings, CABAC                   : Yes
  8. Format settings, ReFrames                : 2 frames
  9. Codec ID                                 : V_MPEG4/ISO/AVC
  10. Duration                                 : 1 h 52 min
  11. Bit rate mode                            : Variable
  12. Bit rate                                 : 18.0 Mb/s
  13. Width                                    : 1 920 pixels
  14. Height                                   : 1 080 pixels
  15. Display aspect ratio                     : 16:9
  16. Frame rate mode                          : Constant
  17. Frame rate                               : 23.976 (24000/1001) FPS
  18. Color space                              : YUV
  19. Chroma subsampling                       : 4:2:0
  20. Bit depth                                : 8 bits
  21. Scan type                                : Progressive
  22. Bits/(Pixel*Frame)                       : 0.362
  23. Stream size                              : 14.2 GiB (81%)
  24. Title                                    : Arthur.2.On.the.Rocks.1988.1080p.BluRay.REMUX.AVC.DTS-HD.MA.2.0-FGT
  25. Language                                 : English
  26. Default                                  : No
  27. Forced                                   : No

  28. Audio #1
  29. ID                                       : 2
  30. Format                                   : DTS XLL
  31. Format/Info                              : Digital Theater Systems
  32. Commercial name                          : DTS-HD Master Audio
  33. Codec ID                                 : A_DTS
  34. Duration                                 : 1 h 52 min
  35. Bit rate mode                            : Variable
  36. Bit rate                                 : 2 112 kb/s
  37. Channel(s)                               : 2 channels
  38. Sampling rate                            : 48.0 kHz
  39. Frame rate                               : 93.750 FPS (512 SPF)
  40. Bit depth                                : 24 bits
  41. Compression mode                         : Lossless
  42. Stream size                              : 1.66 GiB (9%)
  43. Title                                    : Arthur.2.On.the.Rocks.1988.1080p.BluRay.REMUX.AVC.DTS-HD.MA.2.0-FGT
  44. Language                                 : English
  45. Default                                  : Yes
  46. Forced                                   : No

  47. Audio #2
  48. ID                                       : 3
  49. Format                                   : DTS
  50. Format/Info                              : Digital Theater Systems
  51. Codec ID                                 : A_DTS
  52. Duration                                 : 1 h 52 min
  53. Bit rate mode                            : Constant
  54. Bit rate                                 : 1 509 kb/s
  55. Channel(s)                               : 2 channels
  56. Channel layout                           : Lt Rt
  57. Sampling rate                            : 48.0 kHz
  58. Frame rate                               : 93.750 FPS (512 SPF)
  59. Bit depth                                : 24 bits
  60. Compression mode                         : Lossy
  61. Stream size                              : 1.19 GiB (7%)
  62. Title                                    : Arthur.2.On.the.Rocks.1988.1080p.BluRay.REMUX.AVC.DTS-HD.MA.2.0-FGT
  63. Language                                 : English
  64. Default                                  : No
  65. Forced                                   : No

  66. Audio #3
  67. ID                                       : 4
  68. Format                                   : AC-3
  69. Format/Info                              : Audio Coding 3
  70. Commercial name                          : Dolby Digital
  71. Codec ID                                 : A_AC3
  72. Duration                                 : 1 h 52 min
  73. Bit rate mode                            : Constant
  74. Bit rate                                 : 192 kb/s
  75. Channel(s)                               : 2 channels
  76. Channel layout                           : L R
  77. Sampling rate                            : 48.0 kHz
  78. Frame rate                               : 31.250 FPS (1536 SPF)
  79. Bit depth                                : 16 bits
  80. Compression mode                         : Lossy
  81. Stream size                              : 155 MiB (1%)
  82. Title                                    : Arthur.2.On.the.Rocks.1988.1080p.BluRay.REMUX.AVC.DTS-HD.MA.2.0-FGT
  83. Language                                 : French
  84. Service kind                             : Complete Main
  85. Default                                  : No
  86. Forced                                   : No

  87. Audio #4
  88. ID                                       : 5
  89. Format                                   : AC-3
  90. Format/Info                              : Audio Coding 3
  91. Commercial name                          : Dolby Digital
  92. Codec ID                                 : A_AC3
  93. Duration                                 : 1 h 52 min
  94. Bit rate mode                            : Constant
  95. Bit rate                                 : 192 kb/s
  96. Channel(s)                               : 2 channels
  97. Channel layout                           : L R
  98. Sampling rate                            : 48.0 kHz
  99. Frame rate                               : 31.250 FPS (1536 SPF)
  100. Bit depth                                : 16 bits
  101. Compression mode                         : Lossy
  102. Stream size                              : 155 MiB (1%)
  103. Title                                    : Arthur.2.On.the.Rocks.1988.1080p.BluRay.REMUX.AVC.DTS-HD.MA.2.0-FGT
  104. Language                                 : German
  105. Service kind                             : Complete Main
  106. Default                                  : No
  107. Forced                                   : No

  108. Audio #5
  109. ID                                       : 6
  110. Format                                   : AC-3
  111. Format/Info                              : Audio Coding 3
  112. Commercial name                          : Dolby Digital
  113. Codec ID                                 : A_AC3
  114. Duration                                 : 1 h 52 min
  115. Bit rate mode                            : Constant
  116. Bit rate                                 : 192 kb/s
  117. Channel(s)                               : 2 channels
  118. Channel layout                           : L R
  119. Sampling rate                            : 48.0 kHz
  120. Frame rate                               : 31.250 FPS (1536 SPF)
  121. Bit depth                                : 16 bits
  122. Compression mode                         : Lossy
  123. Stream size                              : 155 MiB (1%)
  124. Title                                    : Arthur.2.On.the.Rocks.1988.1080p.BluRay.REMUX.AVC.DTS-HD.MA.2.0-FGT
  125. Language                                 : Spanish
  126. Service kind                             : Complete Main
  127. Default                                  : No
  128. Forced                                   : No

  129. Text #1
  130. ID                                       : 7
  131. Format                                   : PGS
  132. Muxing mode                              : zlib
  133. Codec ID                                 : S_HDMV/PGS
  134. Codec ID/Info                            : Picture based subtitle format used on BDs/HD-DVDs
  135. Duration                                 : 1 h 51 min
  136. Bit rate                                 : 45.3 kb/s
  137. Count of elements                        : 3579
  138. Stream size                              : 36.2 MiB (0%)
  139. Title                                    : English-PGS
  140. Language                                 : English
  141. Default                                  : Yes
  142. Forced                                   : No

  143. Text #2
  144. ID                                       : 8
  145. Format                                   : PGS
  146. Muxing mode                              : zlib
  147. Codec ID                                 : S_HDMV/PGS
  148. Codec ID/Info                            : Picture based subtitle format used on BDs/HD-DVDs
  149. Duration                                 : 1 h 52 min
  150. Bit rate                                 : 36.1 kb/s
  151. Count of elements                        : 3268
  152. Stream size                              : 29.0 MiB (0%)
  153. Title                                    : French-PGS
  154. Language                                 : French
  155. Default                                  : No
  156. Forced                                   : No

  157. Text #3
  158. ID                                       : 9
  159. Format                                   : PGS
  160. Muxing mode                              : zlib
  161. Codec ID                                 : S_HDMV/PGS
  162. Codec ID/Info                            : Picture based subtitle format used on BDs/HD-DVDs
  163. Duration                                 : 1 h 52 min
  164. Bit rate                                 : 49.0 kb/s
  165. Count of elements                        : 3574
  166. Stream size                              : 39.5 MiB (0%)
  167. Title                                    : German-PGS
  168. Language                                 : German
  169. Default                                  : No
  170. Forced                                   : No

  171. Text #4
  172. ID                                       : 10
  173. Format                                   : PGS
  174. Muxing mode                              : zlib
  175. Codec ID                                 : S_HDMV/PGS
  176. Codec ID/Info                            : Picture based subtitle format used on BDs/HD-DVDs
  177. Duration                                 : 1 h 52 min
  178. Bit rate                                 : 38.2 kb/s
  179. Count of elements                        : 3330
  180. Stream size                              : 30.7 MiB (0%)
  181. Title                                    : Spanish-PGS
  182. Language                                 : Spanish
  183. Default                                  : No
  184. Forced                                   : No

  185. Menu
  186. 00:00:00.000                             : en:Chapter 01
  187. 00:04:31.771                             : en:Chapter 02
  188. 00:10:12.945                             : en:Chapter 03
  189. 00:16:04.588                             : en:Chapter 04
  190. 00:18:43.997                             : en:Chapter 05
  191. 00:21:08.475                             : en:Chapter 06
  192. 00:25:30.070                             : en:Chapter 07
  193. 00:27:24.267                             : en:Chapter 08
  194. 00:32:04.130                             : en:Chapter 09
  195. 00:37:21.989                             : en:Chapter 10
  196. 00:40:31.470                             : en:Chapter 11
  197. 00:43:23.767                             : en:Chapter 12
  198. 00:46:40.047                             : en:Chapter 13
  199. 00:49:13.700                             : en:Chapter 14
  200. 00:52:09.626                             : en:Chapter 15
  201. 00:55:29.868                             : en:Chapter 16
  202. 00:58:49.817                             : en:Chapter 17
  203. 01:02:28.745                             : en:Chapter 18
  204. 01:05:30.718                             : en:Chapter 19
  205. 01:08:22.890                             : en:Chapter 20
  206. 01:11:38.794                             : en:Chapter 21
  207. 01:13:50.717                             : en:Chapter 22
  208. 01:17:30.145                             : en:Chapter 23
  209. 01:20:18.021                             : en:Chapter 24
  210. 01:26:16.421                             : en:Chapter 25
  211. 01:30:56.284                             : en:Chapter 26
  212. 01:35:01.821                             : en:Chapter 27
  213. 01:38:30.946                             : en:Chapter 28
  214. 01:43:44.676                             : en:Chapter 29
  215. 01:47:09.089                             : en:Chapter 30
  216. 01:49:43.326                             : en:Chapter 31
复制代码

复制代码

妙龄少女花令郎续集/阔少爷续集 Arthur.2.On.the.Rocks.1988.1080p.BluRay.REMUX.AVC.DTS-HD.MA.2.0-FGT 17.54GB-2.png 妙龄少女花令郎续集/阔少爷续集 Arthur.2.On.the.Rocks.1988.1080p.BluRay.REMUX.AVC.DTS-HD.MA.2.0-FGT 17.54GB-3.png 妙龄少女花令郎续集/阔少爷续集 Arthur.2.On.the.Rocks.1988.1080p.BluRay.REMUX.AVC.DTS-HD.MA.2.0-FGT 17.54GB-4.png





回复

使用道具 举报

*滑动验证:
懒得打字嘛,点击右侧快捷回复 【右侧内容,后台自定义】
您需要登录后才可以回帖 登录 | 立即注册

本版积分规则

QQ|Archiver|手机版|小黑屋| 中国高清网 |网站地图

GMT+8, 2019-6-18 18:37 , Processed in 0.198471 second(s), 44 queries .

Powered by HDchina X3.4

Copyright 2017-2019©HDchina.All right reserved

返回顶部 联系我们