你所知道的4K资源这里全部都有 4K电影 | 4K视频 | 4K壁纸 | 4K MV 怎么播放4K视频 | 4K电视演示片

教你玩转4K私人与家庭影院存储 NAS组装 | 黑群辉 家庭/影院Nas论坛

4K家庭影院信号源与视频设备知识 4K蓝光高清播放机 - 那个品牌好? 4K投影机论坛 | 4K电视机论坛

手把手教你搭建属于自己的家庭影院 4K家庭影院案例 | 家庭影院音频 4K家庭影院论坛

查看: 123|回复: 3

[喜剧片] 一日钟情/美好的一天 One.Fine.Day.1996.1080p.BluRay.REMUX.AVC.DTS-HD.MA.5.1-FGT 21.04GB

[复制链接]

 成长值: 1670

级别:资源管理组

注册时间
2017-10-20
最后登录
2019-6-25
听众
0
收听
0
主题
78745
蓝光币
28950 枚
贡献
3070 点
发表于 2018-11-26 22:33:57 | 显示全部楼层 |阅读模式

一日钟情/美好的一天 One.Fine.Day.1996.1080p.BluRay.REMUX.AVC.DTS-HD.MA.5.1-FGT 21.04GB-1.jpg
◎译  名 一日钟情 / 美好的一天 / 恋爱吉日
◎片  名 一日钟情 One Fine Day
◎年  代 1996
◎国  家 美国
◎类  别 笑剧 / 恋爱
◎语  言 英语 / 西班牙语
◎上映日期 1996-12-20(美国)
◎IMDb评分  6.5/10 from 39,793 users
◎IMDb链接  http://www.imdb.com/title/tt0117247/
◎豆瓣评分 7.3/10 from 3288 users
◎豆瓣链接 https://movie.douban.com/subject/1301468/
◎片  长 108 分钟
◎导  演 迈克尔·霍夫曼
◎主  演 乔治·克鲁尼
      米歇尔·菲佛
      梅·惠特曼
      亚历克斯·D·林兹
      查尔斯·德恩

◎简  介 

  梅兰妮(米歇尔·菲佛 Michelle Pfeiffer 饰)是一位单身母亲,苦苦在工作和儿子之间寻觅着平衡点的生活让她压力很大。杰克(乔治·克鲁尼 George Clooney 饰)是一位专栏记者,女儿的忽然到来让这个新手父亲感应手足无措。黉舍举行的一次远足将两个大人从水火当中振久了出来,没有了孩子的约束,梅兰妮终究可以将留意力全数投放到自己一个大客户的身上,而杰克也可以专心致志的报道市长竞选的相关消息了。
  惋惜适得其反,两个孩子错过了远足的渡轮,这也意味着在这重要的几天内,看管和照顾孩子的职责将完完全全的压到怙恃的肩上。不但如此,在忙乱当中,梅兰妮和杰克错拿了相互的手机,一堆使人焦头烂额的麻烦就此而生,但与此同时,一段美好的情缘也不期而至。

◎获奖情况 

  第69届奥斯卡金像奖 (1997)
  最好原创歌曲(提名) 詹姆斯·纽顿·霍华德 /  Jud Friedman /  Allan Dennis Rich


  1. Video
  2. ID                                       : 1
  3. Format                                   : AVC
  4. Format/Info                              : Advanced Video Codec
  5. Format profile                           : [url=/cdn-cgi/l/email-protection][email protected][/url]
  6. Format settings                          : CABAC / 4 Ref Frames
  7. Format settings, CABAC                   : Yes
  8. Format settings, ReFrames                : 4 frames
  9. Codec ID                                 : V_MPEG4/ISO/AVC
  10. Duration                                 : 1 h 48 min
  11. Bit rate mode                            : Variable
  12. Bit rate                                 : 24.7 Mb/s
  13. Maximum bit rate                         : 35.0 Mb/s
  14. Width                                    : 1 920 pixels
  15. Height                                   : 1 080 pixels
  16. Display aspect ratio                     : 16:9
  17. Frame rate mode                          : Constant
  18. Frame rate                               : 23.976 (24000/1001) FPS
  19. Standard                                 : NTSC
  20. Color space                              : YUV
  21. Chroma subsampling                       : 4:2:0
  22. Bit depth                                : 8 bits
  23. Scan type                                : Progressive
  24. Bits/(Pixel*Frame)                       : 0.497
  25. Stream size                              : 18.7 GiB (89%)
  26. Title                                    : One.Fine.Day.1996.1080p.BluRay.REMUX.AVC.DTS-HD.MA.5.1-FGT
  27. Language                                 : English
  28. Default                                  : No
  29. Forced                                   : No
  30. Color range                              : Limited
  31. Color primaries                          : BT.709
  32. Transfer characteristics                 : BT.709
  33. Matrix coefficients                      : BT.709

  34. Audio #1
  35. ID                                       : 2
  36. Format                                   : DTS XLL
  37. Format/Info                              : Digital Theater Systems
  38. Commercial name                          : DTS-HD Master Audio
  39. Codec ID                                 : A_DTS
  40. Duration                                 : 1 h 48 min
  41. Bit rate mode                            : Variable
  42. Bit rate                                 : 2 070 kb/s
  43. Channel(s)                               : 6 channels
  44. Channel layout                           : C L R Ls Rs LFE
  45. Sampling rate                            : 48.0 kHz
  46. Frame rate                               : 93.750 FPS (512 SPF)
  47. Bit depth                                : 16 bits
  48. Compression mode                         : Lossless
  49. Stream size                              : 1.57 GiB (7%)
  50. Title                                    : One.Fine.Day.1996.1080p.BluRay.REMUX.AVC.DTS-HD.MA.5.1-FGT
  51. Language                                 : English
  52. Default                                  : Yes
  53. Forced                                   : No

  54. Audio #2
  55. ID                                       : 3
  56. Format                                   : DTS
  57. Format/Info                              : Digital Theater Systems
  58. Codec ID                                 : A_DTS
  59. Duration                                 : 1 h 48 min
  60. Bit rate mode                            : Constant
  61. Bit rate                                 : 960 kb/s
  62. Channel(s)                               : 6 channels
  63. Channel layout                           : C L R Ls Rs LFE
  64. Sampling rate                            : 48.0 kHz
  65. Frame rate                               : 93.750 FPS (512 SPF)
  66. Bit depth                                : 16 bits
  67. Compression mode                         : Lossy
  68. Stream size                              : 746 MiB (3%)
  69. Title                                    : One.Fine.Day.1996.1080p.BluRay.REMUX.AVC.DTS-HD.MA.5.1-FGT
  70. Language                                 : English
  71. Default                                  : No
  72. Forced                                   : No

  73. Text
  74. ID                                       : 4
  75. Format                                   : PGS
  76. Muxing mode                              : zlib
  77. Codec ID                                 : S_HDMV/PGS
  78. Codec ID/Info                            : Picture based subtitle format used on BDs/HD-DVDs
  79. Duration                                 : 1 h 48 min
  80. Bit rate                                 : 29.0 kb/s
  81. Count of elements                        : 4853
  82. Stream size                              : 22.5 MiB (0%)
  83. Title                                    : English-PGS
  84. Language                                 : English
  85. Default                                  : Yes
  86. Forced                                   : No

  87. Menu
  88. 00:00:00.000                             : en:Chapter 01
  89. 00:04:00.156                             : en:Chapter 02
  90. 00:10:44.977                             : en:Chapter 03
  91. 00:18:28.190                             : en:Chapter 04
  92. 00:26:25.542                             : en:Chapter 05
  93. 00:36:46.621                             : en:Chapter 06
  94. 00:46:17.566                             : en:Chapter 07
  95. 00:54:25.053                             : en:Chapter 08
  96. 01:05:14.744                             : en:Chapter 09
  97. 01:17:12.044                             : en:Chapter 10
  98. 01:30:52.447                             : en:Chapter 11
复制代码

复制代码

一日钟情/美好的一天 One.Fine.Day.1996.1080p.BluRay.REMUX.AVC.DTS-HD.MA.5.1-FGT 21.04GB-2.png 一日钟情/美好的一天 One.Fine.Day.1996.1080p.BluRay.REMUX.AVC.DTS-HD.MA.5.1-FGT 21.04GB-3.png 一日钟情/美好的一天 One.Fine.Day.1996.1080p.BluRay.REMUX.AVC.DTS-HD.MA.5.1-FGT 21.04GB-4.png





回复

使用道具 举报

级别:荣升主角 Lv.5

注册时间
2018-5-27
最后登录
2019-6-24
听众
10
收听
0
主题
0
蓝光币
135 枚
贡献
0 点
发表于 2018-11-30 18:37:14 | 显示全部楼层
感谢分享!
回复

使用道具 举报

级别:普通观众 Lv.2

注册时间
2018-12-29
最后登录
2018-12-30
听众
5
收听
0
主题
0
蓝光币
23 枚
贡献
0 点
发表于 2018-12-30 12:18:13 | 显示全部楼层
感谢楼主的无私分享!
回复

使用道具 举报

级别:普通观众 Lv.2

注册时间
2018-9-24
最后登录
2018-12-30
听众
6
收听
0
主题
0
蓝光币
61 枚
贡献
0 点
发表于 2018-12-30 13:14:26 | 显示全部楼层

这东西我收了!谢谢楼主!中国高清电影网真好!
回复

使用道具 举报

*滑动验证:
懒得打字嘛,点击右侧快捷回复 【右侧内容,后台自定义】
您需要登录后才可以回帖 登录 | 立即注册

本版积分规则

QQ|Archiver|手机版|小黑屋| 中国高清网 |网站地图

GMT+8, 2019-6-25 02:06 , Processed in 0.197365 second(s), 46 queries .

Powered by HDchina X3.4

Copyright 2017-2019©HDchina.All right reserved

返回顶部 联系我们