你所知道的4K资源这里全部都有 4K电影 | 4K视频 | 4K壁纸 | 4K MV 怎么播放4K视频 | 4K电视演示片

教你玩转4K私人与家庭影院存储 NAS组装 | 黑群辉 家庭/影院Nas论坛

4K家庭影院信号源与视频设备知识 4K蓝光高清播放机 - 那个品牌好? 4K投影机论坛 | 4K电视机论坛

手把手教你搭建属于自己的家庭影院 4K家庭影院案例 | 家庭影院音频 4K家庭影院论坛

查看: 142|回复: 4

[8bit.SDR] 空军一号 Air.Force.One.1997.2160p.BluRay.x264.8bit.SDR.DTS-HD.MA.TrueHD.7.1.Atmos-SWTYBLZ 56.52GB

[复制链接]

 成长值: 120

级别:资源管理组

UID
1
注册时间
2017-10-20
最后登录
2019-1-22
听众
0
收听
0
主题
73918
蓝光币
116409 枚
贡献
143727 点
发表于 2018-11-9 09:46:38 | 显示全部楼层 |阅读模式
空军一号 Air.Force.One.1997.2160p.BluRay.x264.8bit.SDR.DTS-HD.MA.TrueHD.7.1.Atmos-SWTYBLZ 56.52GB-1.jpg
◎译  名 空军一号 / AFO
◎片  名 空军一号 Air Force One
◎年  代 1997
◎国  家 美国 / 德国
◎类  别 剧情 / 行动 / 惊悚
◎语  言 英语 / 俄语
◎上映日期 1997-07-21(加州洛杉矶世纪城首映) / 1997-07-25(美国)
◎IMDb评分  6.5/10 from 163,071 users
◎IMDb链接  http://www.imdb.com/title/tt0118571/
◎豆瓣评分 7.5/10 from 55068 users
◎豆瓣链接 https://movie.douban.com/subject/1293537/
◎片  长 124分钟
◎导  演 沃尔夫冈·彼德森
◎主  演 哈里森·福特
      加里·奥德曼
      格伦·克洛斯
      温迪·古逊
      利塞尔·马修斯
      保罗·吉尔福伊尔
      山德·贝克利
      威廉姆·H·梅西
      迪恩·斯托克维尔
      汤姆·埃沃雷特
      尤尔根·普洛斯诺
      唐娜·布洛克
      迈克尔·雷·米勒
      卡尔·温特劳布
      埃勒斯特·莱瑟姆
      埃利亚·巴斯金
      列万·乌恰尼什维利
      戴维瓦蒂姆
      安德鲁·迪沃夫
      伊利亚·沃里克
      克里斯·豪厄尔
      斯宾塞·加雷特
      比尔·斯米托洛维奇
      菲利普·贝克·霍尔
      艾伯特·欧文斯
      威拉德·E·普
      艾伦·伍尔夫
      丹·肖尔
      大卫·简诺坡罗斯
      格伦·莫肖尔
      理查德·多伊尔
      唐·麦克马纳斯
      J·A·普雷斯顿

◎简  介 

  俄美两国策齐截起反恐行动,派出特种军队擒获了把握核兵器的哈萨克王国独裁者伊万?雷迪克将军(Jurgen Prochnow 饰)。数周后的庆功宴上,曾为越战老兵的美国总统詹姆斯?马舍尔(哈里森?福特Harrison Ford 饰)针对可骇份子和独裁政权颁发了倔强而出色的演说。莫斯科之旅美满竣事,总同一家及其政要乘空军一号返回美国,同业的还有艾格(加里?奥德曼 Gary Oldman 饰)带队的俄罗斯媒体工作职员。
  平安职员百密一疏,艾格的实在身份是效忠于雷迪克将军的可骇份子。飞机腾飞后,艾格和同伴们劫持飞机,绑架美国政要及总统家人,只要詹姆斯侥幸逃走。可骇份子要求俄美开释雷迪克将军,而存身空军一号中的詹姆斯则和这群强盗展开殊死决战……

◎获奖情况 

  第70届奥斯卡金像奖 (1998)
  最好剪辑(提名) 理查德·弗朗西斯-布鲁斯
  最好声响(提名) 道格·亨普希尔 /  保罗·马瑟 /  基思·A·韦斯特 /  里克·克莱恩

  第21届日本电影学院奖 (1998)
  最好外语片(提名)


  1. Video
  2. ID                                       : 1
  3. Format                                   : AVC
  4. Format/Info                              : Advanced Video Codec
  5. Format profile                           : [url=/cdn-cgi/l/email-protection][email protected][/url]
  6. Format settings                          : CABAC / 5 Ref Frames
  7. Format settings, CABAC                   : Yes
  8. Format settings, RefFrames               : 5 frames
  9. Codec ID                                 : V_MPEG4/ISO/AVC
  10. Duration                                 : 2 h 4 min
  11. Bit rate                                 : 53.7 Mb/s
  12. Width                                    : 3 840 pixels
  13. Height                                   : 1 600 pixels
  14. Display aspect ratio                     : 2.40:1
  15. Frame rate mode                          : Constant
  16. Frame rate                               : 23.976 (24000/1001) FPS
  17. Color space                              : YUV
  18. Chroma subsampling                       : 4:2:0
  19. Bit depth                                : 8 bits
  20. Scan type                                : Progressive
  21. Bits/(Pixel*Frame)                       : 0.365
  22. Stream size                              : 46.8 GiB (83%)
  23. Title                                    : Air.Force.One.1997.2160p.BluRay.x264.8bit.SDR.DTS-HD.MA.TrueHD.7.1.Atmos-SWTYBLZ
  24. Writing library                          : x264 core 157 r2935 545de2f
  25. Encoding settings                        : cabac=1 / ref=5 / deblock=1:-1:-1 / analyse=0x3:0x113 / me=umh / subme=10 / psy=1 / psy_rd=1.00:0.15 / mixed_ref=1 / me_range=48 / chroma_me=1 / trellis=2 / 8x8dct=1 / cqm=0 / deadzone=21,11 / fast_pskip=1 / chroma_qp_offset=-3 / threads=50 / lookahead_threads=4 / sliced_threads=0 / nr=0 / decimate=0 / interlaced=0 / bluray_compat=0 / constrained_intra=0 / bframes=3 / b_pyramid=2 / b_adapt=2 / b_bias=0 / direct=3 / weightb=1 / open_gop=0 / weightp=2 / keyint=250 / keyint_min=23 / scenecut=40 / intra_refresh=0 / rc_lookahead=50 / rc=crf / mbtree=1 / crf=20.0 / qcomp=0.60 / qpmin=0 / qpmax=69 / qpstep=4 / ip_ratio=1.40 / aq=1:1.00
  26. Default                                  : Yes
  27. Forced                                   : No

  28. Audio #1
  29. ID                                       : 2
  30. Format                                   : MLP FBA 16-ch
  31. Format/Info                              : Meridian Lossless Packing FBA with 16-channel presentation
  32. Commercial name                          : Dolby TrueHD with Dolby Atmos
  33. Codec ID                                 : A_TRUEHD
  34. Duration                                 : 2 h 4 min
  35. Bit rate mode                            : Variable
  36. Bit rate                                 : 5 464 kb/s
  37. Maximum bit rate                         : 8 559 kb/s
  38. Channel(s)                               : 8 channels
  39. Channel layout                           : L R C LFE Ls Rs Lb Rb
  40. Sampling rate                            : 48.0 kHz
  41. Frame rate                               : 1 200.000 FPS (40 SPF)
  42. Compression mode                         : Lossless
  43. Stream size                              : 4.75 GiB (8%)
  44. Title                                    : Air.Force.One.1997.2160p.BluRay.x264.8bit.SDR.DTS-HD.MA.TrueHD.7.1.Atmos-SWTYBLZ
  45. Language                                 : English
  46. Default                                  : Yes
  47. Forced                                   : No
  48. Number of dynamic objects                : 11
  49. Bed channel count                        : 1 channel
  50. Bed channel configuration                : LFE

  51. Audio #2
  52. ID                                       : 3
  53. Format                                   : DTS XLL
  54. Format/Info                              : Digital Theater Systems
  55. Commercial name                          : DTS-HD Master Audio
  56. Codec ID                                 : A_DTS
  57. Duration                                 : 2 h 4 min
  58. Bit rate mode                            : Variable
  59. Bit rate                                 : 4 766 kb/s
  60. Channel(s)                               : 8 channels
  61. Channel layout                           : C L R LFE Lb Rb Lss Rss
  62. Sampling rate                            : 48.0 kHz
  63. Frame rate                               : 93.750 FPS (512 SPF)
  64. Bit depth                                : 24 bits
  65. Compression mode                         : Lossless
  66. Stream size                              : 4.15 GiB (7%)
  67. Title                                    : Air.Force.One.1997.2160p.BluRay.x264.8bit.SDR.DTS-HD.MA.TrueHD.7.1.Atmos-SWTYBLZ
  68. Language                                 : English
  69. Default                                  : No
  70. Forced                                   : No

  71. Audio #3
  72. ID                                       : 4
  73. Format                                   : AC-3
  74. Format/Info                              : Audio Coding 3
  75. Commercial name                          : Dolby Digital
  76. Codec ID                                 : A_AC3
  77. Duration                                 : 2 h 4 min
  78. Bit rate mode                            : Constant
  79. Bit rate                                 : 640 kb/s
  80. Channel(s)                               : 6 channels
  81. Channel layout                           : L R C LFE Ls Rs
  82. Sampling rate                            : 48.0 kHz
  83. Frame rate                               : 31.250 FPS (1536 SPF)
  84. Bit depth                                : 16 bits
  85. Compression mode                         : Lossy
  86. Stream size                              : 570 MiB (1%)
  87. Title                                    : Air.Force.One.1997.2160p.BluRay.x264.8bit.SDR.DTS-HD.MA.TrueHD.7.1.Atmos-SWTYBLZ
  88. Language                                 : English
  89. Service kind                             : Complete Main
  90. Default                                  : No
  91. Forced                                   : No

  92. Text #1
  93. ID                                       : 5
  94. Format                                   : UTF-8
  95. Codec ID                                 : S_TEXT/UTF8
  96. Codec ID/Info                            : UTF-8 Plain Text
  97. Duration                                 : 1 h 17 min
  98. Bit rate                                 : 2 b/s
  99. Count of elements                        : 54
  100. Stream size                              : 1.21 KiB (0%)
  101. Title                                    : English-FORCED-SRT
  102. Language                                 : English
  103. Default                                  : Yes
  104. Forced                                   : Yes

  105. Text #2
  106. ID                                       : 6
  107. Format                                   : UTF-8
  108. Codec ID                                 : S_TEXT/UTF8
  109. Codec ID/Info                            : UTF-8 Plain Text
  110. Duration                                 : 1 h 53 min
  111. Bit rate                                 : 56 b/s
  112. Count of elements                        : 1249
  113. Stream size                              : 46.9 KiB (0%)
  114. Title                                    : English-SRT
  115. Language                                 : English
  116. Default                                  : No
  117. Forced                                   : No

  118. Text #3
  119. ID                                       : 7
  120. Format                                   : UTF-8
  121. Codec ID                                 : S_TEXT/UTF8
  122. Codec ID/Info                            : UTF-8 Plain Text
  123. Duration                                 : 1 h 53 min
  124. Bit rate                                 : 56 b/s
  125. Count of elements                        : 1245
  126. Stream size                              : 46.8 KiB (0%)
  127. Title                                    : English-SDH-SRT
  128. Default                                  : No
  129. Forced                                   : No

  130. Text #4
  131. ID                                       : 8
  132. Format                                   : PGS
  133. Muxing mode                              : zlib
  134. Codec ID                                 : S_HDMV/PGS
  135. Codec ID/Info                            : Picture based subtitle format used on BDs/HD-DVDs
  136. Duration                                 : 1 h 57 min
  137. Bit rate                                 : 34.7 kb/s
  138. Count of elements                        : 2915
  139. Stream size                              : 29.3 MiB (0%)
  140. Title                                    : English-PGS
  141. Language                                 : English
  142. Default                                  : No
  143. Forced                                   : No

  144. Text #5
  145. ID                                       : 9
  146. Format                                   : PGS
  147. Muxing mode                              : zlib
  148. Codec ID                                 : S_HDMV/PGS
  149. Codec ID/Info                            : Picture based subtitle format used on BDs/HD-DVDs
  150. Duration                                 : 1 h 53 min
  151. Bit rate                                 : 31.4 kb/s
  152. Count of elements                        : 2491
  153. Stream size                              : 25.5 MiB (0%)
  154. Title                                    : English-SDH-PGS
  155. Language                                 : English
  156. Default                                  : No
  157. Forced                                   : No

  158. Text #6
  159. ID                                       : 10
  160. Format                                   : PGS
  161. Muxing mode                              : zlib
  162. Codec ID                                 : S_HDMV/PGS
  163. Codec ID/Info                            : Picture based subtitle format used on BDs/HD-DVDs
  164. Duration                                 : 1 h 54 min
  165. Bit rate                                 : 30.1 kb/s
  166. Count of elements                        : 2447
  167. Stream size                              : 24.6 MiB (0%)
  168. Title                                    : French-PGS
  169. Language                                 : French
  170. Default                                  : No
  171. Forced                                   : No

  172. Text #7
  173. ID                                       : 11
  174. Format                                   : PGS
  175. Muxing mode                              : zlib
  176. Codec ID                                 : S_HDMV/PGS
  177. Codec ID/Info                            : Picture based subtitle format used on BDs/HD-DVDs
  178. Duration                                 : 1 h 56 min
  179. Bit rate                                 : 27.9 kb/s
  180. Count of elements                        : 2447
  181. Stream size                              : 23.2 MiB (0%)
  182. Title                                    : Spanish-PGS
  183. Language                                 : Spanish
  184. Default                                  : No
  185. Forced                                   : No

  186. Text #8
  187. ID                                       : 12
  188. Format                                   : PGS
  189. Muxing mode                              : zlib
  190. Codec ID                                 : S_HDMV/PGS
  191. Codec ID/Info                            : Picture based subtitle format used on BDs/HD-DVDs
  192. Duration                                 : 2 h 1 min
  193. Bit rate                                 : 1 222 b/s
  194. Count of elements                        : 156
  195. Stream size                              : 1.06 MiB (0%)
  196. Title                                    : French-PGS
  197. Language                                 : French
  198. Default                                  : No
  199. Forced                                   : No

  200. Menu
  201. 00:00:00.000                             : :Chapter 1
  202. 00:09:18.599                             : :Chapter 2
  203. 00:15:38.145                             : :Chapter 3
  204. 00:19:59.448                             : :Chapter 4
  205. 00:29:07.746                             : :Chapter 5
  206. 00:33:28.131                             : :Chapter 6
  207. 00:39:47.718                             : :Chapter 7
  208. 00:47:17.125                             : :Chapter 8
  209. 00:54:42.904                             : :Chapter 9
  210. 01:01:44.200                             : :Chapter 10
  211. 01:08:45.037                             : :Chapter 11
  212. 01:16:33.005                             : :Chapter 12
  213. 01:26:26.389                             : :Chapter 13
  214. 01:33:02.660                             : :Chapter 14
  215. 01:41:58.821                             : :Chapter 15
  216. 01:50:53.688                             : :Chapter 16
复制代码

复制代码

空军一号 Air.Force.One.1997.2160p.BluRay.x264.8bit.SDR.DTS-HD.MA.TrueHD.7.1.Atmos-SWTYBLZ 56.52GB-2.png 空军一号 Air.Force.One.1997.2160p.BluRay.x264.8bit.SDR.DTS-HD.MA.TrueHD.7.1.Atmos-SWTYBLZ 56.52GB-3.png 空军一号 Air.Force.One.1997.2160p.BluRay.x264.8bit.SDR.DTS-HD.MA.TrueHD.7.1.Atmos-SWTYBLZ 56.52GB-4.png 空军一号 Air.Force.One.1997.2160p.BluRay.x264.8bit.SDR.DTS-HD.MA.TrueHD.7.1.Atmos-SWTYBLZ 56.52GB-5.png 空军一号 Air.Force.One.1997.2160p.BluRay.x264.8bit.SDR.DTS-HD.MA.TrueHD.7.1.Atmos-SWTYBLZ 56.52GB-6.png 空军一号 Air.Force.One.1997.2160p.BluRay.x264.8bit.SDR.DTS-HD.MA.TrueHD.7.1.Atmos-SWTYBLZ 56.52GB-7.png






本帖隐藏的下载地址需要VIP会员才可阅读,您需要升级才可阅读,点击这里升级VIP

回复

使用道具 举报

级别:初级观众 Lv.1

UID
9701
注册时间
2018-11-9
最后登录
2019-1-16
听众
0
收听
0
主题
0
蓝光币
2 枚
贡献
0 点
发表于 2018-11-9 16:04:37 | 显示全部楼层
好电影收藏了!
回复

使用道具 举报

级别:专业龙套 Lv.4

UID
9231
注册时间
2018-10-31
最后登录
2019-1-22
听众
0
收听
0
主题
0
蓝光币
666 枚
贡献
0 点
QQ
发表于 2018-11-25 20:26:03 | 显示全部楼层
我看不错噢 谢谢楼主!
回复

使用道具 举报

级别:初级观众 Lv.1

UID
11831
注册时间
2018-12-10
最后登录
2019-1-7
听众
0
收听
0
主题
0
蓝光币
1 枚
贡献
0 点
发表于 2018-12-11 00:19:21 | 显示全部楼层
感谢分享!ViP值
回复

使用道具 举报

级别:初级观众 Lv.1

UID
11831
注册时间
2018-12-10
最后登录
2019-1-7
听众
0
收听
0
主题
0
蓝光币
1 枚
贡献
0 点
发表于 2018-12-11 00:20:09 | 显示全部楼层
感谢分享!ViP值
回复

使用道具 举报

懒得打字嘛,点击右侧快捷回复 【右侧内容,后台自定义】
您需要登录后才可以回帖 登录 | 立即注册

本版积分规则

QQ|Archiver|手机版|小黑屋|中国高清网 |网站地图

GMT+8, 2019-1-22 08:42 , Processed in 0.179249 second(s), 41 queries .

Powered by HDchina X3.4

Copyright 2017-2018©HDchina.All right reserved

返回顶部 联系我们